  0
SECTION
  2
HEADER
  9
$ACADVER
  1
AC1015
  9
$ACADMAINTVER
 70
     6
  9
$DWGCODEPAGE
  3
ANSI_1252
  9
$INSBASE
 10
0.0
 20
0.0
 30
0.0
  9
$EXTMIN
 10
-989.1893680851335
 20
-2397.047664041242
 30
0.0
  9
$EXTMAX
 10
1110.810631914868
 20
572.952335958759
 30
0.0
  9
$LIMMIN
 10
0.0
 20
0.0
  9
$LIMMAX
 10
12.0
 20
9.0
  9
$ORTHOMODE
 70
     0
  9
$REGENMODE
 70
     1
  9
$FILLMODE
 70
     1
  9
$QTEXTMODE
 70
     0
  9
$MIRRTEXT
 70
     1
  9
$LTSCALE
 40
1.0
  9
$ATTMODE
 70
     1
  9
$TEXTSIZE
 40
0.2
  9
$TRACEWID
 40
0.05
  9
$TEXTSTYLE
  7
Standard
  9
$CLAYER
  8
0
  9
$CELTYPE
  6
ByLayer
  9
$CECOLOR
 62
   256
  9
$CELTSCALE
 40
1.0
  9
$DISPSILH
 70
     0
  9
$DIMSCALE
 40
1.0
  9
$DIMASZ
 40
0.18
  9
$DIMEXO
 40
0.0625
  9
$DIMDLI
 40
0.38
  9
$DIMRND
 40
0.0
  9
$DIMDLE
 40
0.0
  9
$DIMEXE
 40
0.18
  9
$DIMTP
 40
0.0
  9
$DIMTM
 40
0.0
  9
$DIMTXT
 40
0.18
  9
$DIMCEN
 40
0.09
  9
$DIMTSZ
 40
0.0
  9
$DIMTOL
 70
     0
  9
$DIMLIM
 70
     0
  9
$DIMTIH
 70
     1
  9
$DIMTOH
 70
     1
  9
$DIMSE1
 70
     0
  9
$DIMSE2
 70
     0
  9
$DIMTAD
 70
     0
  9
$DIMZIN
 70
     0
  9
$DIMBLK
  1

  9
$DIMASO
 70
     1
  9
$DIMSHO
 70
     1
  9
$DIMPOST
  1

  9
$DIMAPOST
  1

  9
$DIMALT
 70
     0
  9
$DIMALTD
 70
     2
  9
$DIMALTF
 40
25.4
  9
$DIMLFAC
 40
1.0
  9
$DIMTOFL
 70
     0
  9
$DIMTVP
 40
0.0
  9
$DIMTIX
 70
     0
  9
$DIMSOXD
 70
     0
  9
$DIMSAH
 70
     0
  9
$DIMBLK1
  1

  9
$DIMBLK2
  1

  9
$DIMSTYLE
  2
Standard
  9
$DIMCLRD
 70
     0
  9
$DIMCLRE
 70
     0
  9
$DIMCLRT
 70
     0
  9
$DIMTFAC
 40
1.0
  9
$DIMGAP
 40
0.09
  9
$DIMJUST
 70
     0
  9
$DIMSD1
 70
     0
  9
$DIMSD2
 70
     0
  9
$DIMTOLJ
 70
     1
  9
$DIMTZIN
 70
     0
  9
$DIMALTZ
 70
     0
  9
$DIMALTTZ
 70
     0
  9
$DIMUPT
 70
     0
  9
$DIMDEC
 70
     4
  9
$DIMTDEC
 70
     4
  9
$DIMALTU
 70
     2
  9
$DIMALTTD
 70
     2
  9
$DIMTXSTY
  7
Standard
  9
$DIMAUNIT
 70
     0
  9
$DIMADEC
 70
     0
  9
$DIMALTRND
 40
0.0
  9
$DIMAZIN
 70
     0
  9
$DIMDSEP
 70
    46
  9
$DIMATFIT
 70
     3
  9
$DIMFRAC
 70
     0
  9
$DIMLDRBLK
  1

  9
$DIMLUNIT
 70
     2
  9
$DIMLWD
 70
    -2
  9
$DIMLWE
 70
    -2
  9
$DIMTMOVE
 70
     0
  9
$LUNITS
 70
     2
  9
$LUPREC
 70
     4
  9
$SKETCHINC
 40
0.1
  9
$FILLETRAD
 40
0.5
  9
$AUNITS
 70
     0
  9
$AUPREC
 70
     0
  9
$MENU
  1
.
  9
$ELEVATION
 40
0.0
  9
$PELEVATION
 40
0.0
  9
$THICKNESS
 40
0.0
  9
$LIMCHECK
 70
     0
  9
$CHAMFERA
 40
0.5
  9
$CHAMFERB
 40
0.5
  9
$CHAMFERC
 40
1.0
  9
$CHAMFERD
 40
0.0
  9
$SKPOLY
 70
     0
  9
$TDCREATE
 40
2456997.442000706
  9
$TDUCREATE
 40
2456997.400334039
  9
$TDUPDATE
 40
2456997.442000891
  9
$TDUUPDATE
 40
2456997.400334225
  9
$TDINDWG
 40
0.0000000116
  9
$TDUSRTIMER
 40
0.0000000116
  9
$USRTIMER
 70
     1
  9
$ANGBASE
 50
0.0
  9
$ANGDIR
 70
     0
  9
$PDMODE
 70
     0
  9
$PDSIZE
 40
0.0
  9
$PLINEWID
 40
0.0
  9
$SPLFRAME
 70
     0
  9
$SPLINETYPE
 70
     6
  9
$SPLINESEGS
 70
     8
  9
$HANDSEED
  5
299
  9
$SURFTAB1
 70
     6
  9
$SURFTAB2
 70
     6
  9
$SURFTYPE
 70
     6
  9
$SURFU
 70
     6
  9
$SURFV
 70
     6
  9
$UCSBASE
  2

  9
$UCSNAME
  2

  9
$UCSORG
 10
0.0
 20
0.0
 30
0.0
  9
$UCSXDIR
 10
1.0
 20
0.0
 30
0.0
  9
$UCSYDIR
 10
0.0
 20
1.0
 30
0.0
  9
$UCSORTHOREF
  2

  9
$UCSORTHOVIEW
 70
     0
  9
$UCSORGTOP
 10
0.0
 20
0.0
 30
0.0
  9
$UCSORGBOTTOM
 10
0.0
 20
0.0
 30
0.0
  9
$UCSORGLEFT
 10
0.0
 20
0.0
 30
0.0
  9
$UCSORGRIGHT
 10
0.0
 20
0.0
 30
0.0
  9
$UCSORGFRONT
 10
0.0
 20
0.0
 30
0.0
  9
$UCSORGBACK
 10
0.0
 20
0.0
 30
0.0
  9
$PUCSBASE
  2

  9
$PUCSNAME
  2

  9
$PUCSORG
 10
0.0
 20
0.0
 30
0.0
  9
$PUCSXDIR
 10
1.0
 20
0.0
 30
0.0
  9
$PUCSYDIR
 10
0.0
 20
1.0
 30
0.0
  9
$PUCSORTHOREF
  2

  9
$PUCSORTHOVIEW
 70
     0
  9
$PUCSORGTOP
 10
0.0
 20
0.0
 30
0.0
  9
$PUCSORGBOTTOM
 10
0.0
 20
0.0
 30
0.0
  9
$PUCSORGLEFT
 10
0.0
 20
0.0
 30
0.0
  9
$PUCSORGRIGHT
 10
0.0
 20
0.0
 30
0.0
  9
$PUCSORGFRONT
 10
0.0
 20
0.0
 30
0.0
  9
$PUCSORGBACK
 10
0.0
 20
0.0
 30
0.0
  9
$USERI1
 70
     0
  9
$USERI2
 70
     0
  9
$USERI3
 70
     0
  9
$USERI4
 70
     0
  9
$USERI5
 70
     0
  9
$USERR1
 40
18.1
  9
$USERR2
 40
0.0
  9
$USERR3
 40
0.0
  9
$USERR4
 40
0.0
  9
$USERR5
 40
0.0
  9
$WORLDVIEW
 70
     1
  9
$SHADEDGE
 70
     3
  9
$SHADEDIF
 70
    70
  9
$TILEMODE
 70
     1
  9
$MAXACTVP
 70
    64
  9
$PINSBASE
 10
0.0
 20
0.0
 30
0.0
  9
$PLIMCHECK
 70
     0
  9
$PEXTMIN
 10
1.00000000000000E+20
 20
1.00000000000000E+20
 30
1.00000000000000E+20
  9
$PEXTMAX
 10
-1.00000000000000E+20
 20
-1.00000000000000E+20
 30
-1.00000000000000E+20
  9
$PLIMMIN
 10
0.0
 20
0.0
  9
$PLIMMAX
 10
12.0
 20
9.0
  9
$UNITMODE
 70
     0
  9
$VISRETAIN
 70
     1
  9
$PLINEGEN
 70
     0
  9
$PSLTSCALE
 70
     1
  9
$TREEDEPTH
 70
  3020
  9
$CMLSTYLE
  2
Standard
  9
$CMLJUST
 70
     0
  9
$CMLSCALE
 40
1.0
  9
$PROXYGRAPHICS
 70
     1
  9
$MEASUREMENT
 70
     1
  9
$CELWEIGHT
370
    -1
  9
$ENDCAPS
280
     0
  9
$JOINSTYLE
280
     0
  9
$LWDISPLAY
290
     0
  9
$INSUNITS
 70
     4
  9
$HYPERLINKBASE
  1

  9
$STYLESHEET
  1

  9
$XEDIT
290
     1
  9
$CEPSNTYPE
380
     0
  9
$PSTYLEMODE
290
     1
  9
$FINGERPRINTGUID
  2
{5C3C2036-62A7-47AC-9E15-DBB88EE9CA1C}
  9
$VERSIONGUID
  2
{FAEB1C32-E019-11D5-929B-00C0DF256EC4}
  9
$EXTNAMES
290
     1
  9
$PSVPSCALE
 40
0.0
  9
$OLESTARTUP
290
     0
  0
ENDSEC
  0
SECTION
  2
CLASSES
  0
CLASS
  1
ACDBDICTIONARYWDFLT
  2
AcDbDictionaryWithDefault
  3
ObjectDBX Classes
 90
        0
280
     0
281
     0
  0
CLASS
  1
VISUALSTYLE
  2
AcDbVisualStyle
  3
ObjectDBX Classes
 90
     4095
280
     0
281
     0
  0
CLASS
  1
MATERIAL
  2
AcDbMaterial
  3
ObjectDBX Classes
 90
     1153
280
     0
281
     0
  0
CLASS
  1
DICTIONARYVAR
  2
AcDbDictionaryVar
  3
ObjectDBX Classes
 90
        0
280
     0
281
     0
  0
CLASS
  1
ACDBPLACEHOLDER
  2
AcDbPlaceHolder
  3
ObjectDBX Classes
 90
        0
280
     0
281
     0
  0
CLASS
  1
LAYOUT
  2
AcDbLayout
  3
ObjectDBX Classes
 90
        0
280
     0
281
     0
  0
ENDSEC
  0
SECTION
  2
TABLES
  0
TABLE
  2
VPORT
  5
8
330
0
100
AcDbSymbolTable
 70
     1
  0
VPORT
  5
29
330
8
100
AcDbSymbolTableRecord
100
AcDbViewportTableRecord
  2
*Active
 70
     0
 10
0.0
 20
0.0
 11
1.0
 21
1.0
 12
60.81063191486726
 22
-912.0476640412415
 13
0.0
 23
0.0
 14
0.5
 24
0.5
 15
0.5
 25
0.5
 16
0.0
 26
0.0
 36
1.0
 17
0.0
 27
0.0
 37
0.0
 40
3267.000000000001
 41
1.60267857142857
 42
50.0
 43
0.0
 44
0.0
 50
0.0
 51
0.0
 71
     0
 72
   100
 73
     1
 74
     3
 75
     0
 76
     0
 77
     0
 78
     0
281
     0
 65
     1
110
0.0
120
0.0
130
0.0
111
1.0
121
0.0
131
0.0
112
0.0
122
1.0
132
0.0
 79
     0
146
0.0
  0
ENDTAB
  0
TABLE
  2
LTYPE
  5
5
330
0
100
AcDbSymbolTable
 70
     8
  0
LTYPE
  5
14
330
5
100
AcDbSymbolTableRecord
100
AcDbLinetypeTableRecord
  2
ByBlock
 70
     0
  3

 72
    65
 73
     0
 40
0.0
  0
LTYPE
  5
15
330
5
100
AcDbSymbolTableRecord
100
AcDbLinetypeTableRecord
  2
ByLayer
 70
     0
  3

 72
    65
 73
     0
 40
0.0
  0
LTYPE
  5
16
330
5
100
AcDbSymbolTableRecord
100
AcDbLinetypeTableRecord
  2
Continuous
 70
     0
  3
Solid line
 72
    65
 73
     0
 40
0.0
  0
LTYPE
  5
3F
330
5
100
AcDbSymbolTableRecord
100
AcDbLinetypeTableRecord
  2
DASHED
 70
     0
  3
Dashed
 72
    65
 73
     2
 40
15.0
 49
7.0
 74
     0
 49
-8.0
 74
     0
  0
LTYPE
  5
40
330
5
100
AcDbSymbolTableRecord
100
AcDbLinetypeTableRecord
  2
DOTTED
 70
     0
  3
Dotted
 72
    65
 73
     2
 40
1.0
 49
0.0
 74
     0
 49
-1.0
 74
     0
  0
LTYPE
  5
41
330
5
100
AcDbSymbolTableRecord
100
AcDbLinetypeTableRecord
  2
DOT_CENTER
 70
     0
  3
Dot_Center
 72
    65
 73
     4
 40
14.0
 49
12.0
 74
     0
 49
-1.0
 74
     0
 49
0.0
 74
     0
 49
-1.0
 74
     0
  0
LTYPE
  5
42
330
5
100
AcDbSymbolTableRecord
100
AcDbLinetypeTableRecord
  2
LONG_DASHED
 70
     0
  3
Long_Dashed
 72
    65
 73
     2
 40
15.0
 49
10.0
 74
     0
 49
-5.0
 74
     0
  0
LTYPE
  5
43
330
5
100
AcDbSymbolTableRecord
100
AcDbLinetypeTableRecord
  2
DASH_CENTER
 70
     0
  3
Dash_Center
 72
    65
 73
     4
 40
14.0
 49
11.0
 74
     0
 49
-1.0
 74
     0
 49
1.0
 74
     0
 49
-1.0
 74
     0
  0
LTYPE
  5
44
330
5
100
AcDbSymbolTableRecord
100
AcDbLinetypeTableRecord
  2
PHANTOM
 70
     0
  3
Phantom
 72
    65
 73
     6
 40
13.0
 49
10.0
 74
     0
 49
-1.0
 74
     0
 49
0.0
 74
     0
 49
-1.0
 74
     0
 49
0.0
 74
     0
 49
-1.0
 74
     0
  0
LTYPE
  5
45
330
5
100
AcDbSymbolTableRecord
100
AcDbLinetypeTableRecord
  2
CENTER_DASH_DASH
 70
     0
  3
Center_Dash_Dash
 72
    65
 73
     6
 40
14.0
 49
9.0
 74
     0
 49
-1.0
 74
     0
 49
1.0
 74
     0
 49
-1.0
 74
     0
 49
1.0
 74
     0
 49
-1.0
 74
     0
  0
ENDTAB
  0
TABLE
  2
LAYER
  5
2
330
0
100
AcDbSymbolTable
 70
     2
  0
LAYER
  5
10
330
2
100
AcDbSymbolTableRecord
100
AcDbLayerTableRecord
  2
0
 70
     0
 62
     7
  6
Continuous
370
    -3
390
F
  0
LAYER
  5
46
330
2
100
AcDbSymbolTableRecord
100
AcDbLayerTableRecord
  2
1
 70
     0
 62
     7
  6
Continuous
370
    -3
390
F
  0
ENDTAB
  0
TABLE
  2
STYLE
  5
3
330
0
100
AcDbSymbolTable
 70
     4
  0
STYLE
  5
11
330
3
100
AcDbSymbolTableRecord
100
AcDbTextStyleTableRecord
  2
Standard
 70
     0
 40
0.0
 41
1.0
 50
0.0
 71
     0
 42
0.2
  3
txt
  4

  0
STYLE
  5
9B
330
3
100
AcDbSymbolTableRecord
100
AcDbTextStyleTableRecord
  2
CONVERTER_11
 70
     0
 40
0.0
 41
1.2
 50
0.0
 71
     0
 42
0.2
  3
ARIAL.TTF
  4

  0
STYLE
  5
A0
330
3
100
AcDbSymbolTableRecord
100
AcDbTextStyleTableRecord
  2
CONVERTER_12
 70
     0
 40
0.0
 41
1.38
 50
0.0
 71
     0
 42
0.2
  3
ARIAL.TTF
  4

  0
STYLE
  5
232
330
3
100
AcDbSymbolTableRecord
100
AcDbTextStyleTableRecord
  2
CONVERTER_13
 70
     0
 40
0.0
 41
0.95
 50
0.0
 71
     0
 42
0.2
  3
simplex.shx
  4

  0
ENDTAB
  0
TABLE
  2
VIEW
  5
6
330
0
100
AcDbSymbolTable
 70
     0
  0
ENDTAB
  0
TABLE
  2
UCS
  5
7
330
0
100
AcDbSymbolTable
 70
     0
  0
ENDTAB
  0
TABLE
  2
APPID
  5
9
330
0
100
AcDbSymbolTable
 70
     1
  0
APPID
  5
12
330
9
100
AcDbSymbolTableRecord
100
AcDbRegAppTableRecord
  2
ACAD
 70
     0
  0
ENDTAB
  0
TABLE
  2
DIMSTYLE
  5
A
330
0
100
AcDbSymbolTable
 70
     6
100
AcDbDimStyleTable
  0
DIMSTYLE
105
27
330
A
100
AcDbSymbolTableRecord
100
AcDbDimStyleTableRecord
  2
Standard
 70
     0
178
     0
340
11
  0
DIMSTYLE
105
236
102
{ACAD_REACTORS
330
237
102
}
330
A
100
AcDbSymbolTableRecord
100
AcDbDimStyleTableRecord
  2
ME10_DIM_10
 70
     0
 41
30.0
 42
5.0
 44
10.0
 73
     0
 74
     0
 77
     1
 78
     8
140
30.0
147
20.0
172
     1
173
     1
174
     1
175
     1
176
     2
177
     2
271
     2
178
     4
271
     2
340
232
  0
DIMSTYLE
105
244
102
{ACAD_REACTORS
330
245
102
}
330
A
100
AcDbSymbolTableRecord
100
AcDbDimStyleTableRecord
  2
ME10_DIM_11
 70
     0
 41
30.0
 42
5.0
 44
10.0
 73
     0
 74
     0
 77
     1
 78
     8
140
30.0
147
20.0
172
     1
173
     1
174
     1
175
     1
176
     2
177
     2
271
     2
178
     4
271
     2
340
232
  0
DIMSTYLE
105
24F
102
{ACAD_REACTORS
330
250
102
}
330
A
100
AcDbSymbolTableRecord
100
AcDbDimStyleTableRecord
  2
ME10_DIM_12
 70
     0
 41
30.0
 42
5.0
 44
10.0
 73
     0
 74
     0
 77
     1
 78
     8
140
30.0
147
20.0
172
     1
173
     1
174
     1
175
     1
176
     2
177
     2
271
     2
178
     4
271
     2
340
232
  0
DIMSTYLE
105
25A
102
{ACAD_REACTORS
330
25B
102
}
330
A
100
AcDbSymbolTableRecord
100
AcDbDimStyleTableRecord
  2
ME10_DIM_13
 70
     0
 41
30.0
 42
5.0
 44
10.0
 73
     0
 74
     0
 77
     1
 78
     8
140
30.0
147
20.0
172
     1
173
     1
174
     1
175
     1
176
     2
177
     2
271
     2
178
     4
271
     2
340
232
  0
DIMSTYLE
105
265
102
{ACAD_REACTORS
330
266
102
}
330
A
100
AcDbSymbolTableRecord
100
AcDbDimStyleTableRecord
  2
ME10_DIM_14
 70
     0
 41
30.0
 42
5.0
 44
10.0
 73
     0
 74
     0
 77
     1
 78
     8
140
30.0
147
20.0
172
     1
173
     1
174
     1
175
     1
176
     2
177
     2
271
     2
178
     4
271
     2
340
232
  0
ENDTAB
  0
TABLE
  2
BLOCK_RECORD
  5
1
330
0
100
AcDbSymbolTable
 70
     9
  0
BLOCK_RECORD
  5
1F
330
1
100
AcDbSymbolTableRecord
100
AcDbBlockTableRecord
  2
*Model_Space
340
22
  0
BLOCK_RECORD
  5
1B
330
1
100
AcDbSymbolTableRecord
100
AcDbBlockTableRecord
  2
*Paper_Space
340
1E
  0
BLOCK_RECORD
  5
23
330
1
100
AcDbSymbolTableRecord
100
AcDbBlockTableRecord
  2
*Paper_Space0
340
26
  0
BLOCK_RECORD
  5
47
330
1
100
AcDbSymbolTableRecord
100
AcDbBlockTableRecord
  2
_formato_A4
340
0
102
{BLKREFS
331
4B
102
}
  0
BLOCK_RECORD
  5
4A
330
1
100
AcDbSymbolTableRecord
100
AcDbBlockTableRecord
  2
A4
340
0
102
{BLKREFS
331
4E
102
}
  0
BLOCK_RECORD
  5
22C
330
1
100
AcDbSymbolTableRecord
100
AcDbBlockTableRecord
  2
*D3
340
0
  0
BLOCK_RECORD
  5
238
330
1
100
AcDbSymbolTableRecord
100
AcDbBlockTableRecord
  2
*D4
340
0
  0
BLOCK_RECORD
  5
246
330
1
100
AcDbSymbolTableRecord
100
AcDbBlockTableRecord
  2
*D5
340
0
  0
BLOCK_RECORD
  5
251
330
1
100
AcDbSymbolTableRecord
100
AcDbBlockTableRecord
  2
*D6
340
0
  0
BLOCK_RECORD
  5
25C
330
1
100
AcDbSymbolTableRecord
100
AcDbBlockTableRecord
  2
*D7
340
0
  0
BLOCK_RECORD
  5
267
330
1
100
AcDbSymbolTableRecord
100
AcDbBlockTableRecord
  2
*D8
340
0
102
{BLKREFS
331
26D
102
}
  0
ENDTAB
  0
ENDSEC
  0
SECTION
  2
BLOCKS
  0
BLOCK
  5
20
330
1F
100
AcDbEntity
  8
0
100
AcDbBlockBegin
  2
*Model_Space
 70
     0
 10
0.0
 20
0.0
 30
0.0
  3
*Model_Space
  1

  0
ENDBLK
  5
21
330
1F
100
AcDbEntity
  8
0
100
AcDbBlockEnd
  0
BLOCK
  5
1C
330
1B
100
AcDbEntity
 67
     1
  8
0
100
AcDbBlockBegin
  2
*Paper_Space
 70
     0
 10
0.0
 20
0.0
 30
0.0
  3
*Paper_Space
  1

  0
ENDBLK
  5
1D
330
1B
100
AcDbEntity
 67
     1
  8
0
100
AcDbBlockEnd
  0
BLOCK
  5
24
330
23
100
AcDbEntity
  8
0
100
AcDbBlockBegin
  2
*Paper_Space0
 70
     0
 10
0.0
 20
0.0
 30
0.0
  3
*Paper_Space0
  1

  0
ENDBLK
  5
25
330
23
100
AcDbEntity
  8
0
100
AcDbBlockEnd
  0
BLOCK
  5
48
330
47
100
AcDbEntity
  8
0
100
AcDbBlockBegin
  2
_formato_A4
 70
     0
 10
-278.3646840425656
 20
-323.713832020621
 30
0.0
  3
_formato_A4
  1

  0
LINE
  5
4F
330
47
100
AcDbEntity
  8
1
  6
Continuous
 62
     7
100
AcDbLine
 10
-467.3646840425655
 20
-303.713832020621
 30
0.0
 11
-283.3646840425656
 21
-303.713832020621
 31
0.0
  0
LINE
  5
50
330
47
100
AcDbEntity
  8
1
  6
Continuous
 62
     7
100
AcDbLine
 10
-467.3646840425655
 20
-318.7138320206211
 30
0.0
 11
-283.3646840425656
 21
-318.7138320206211
 31
0.0
  0
LINE
  5
51
330
47
100
AcDbEntity
  8
1
  6
Continuous
 62
     7
100
AcDbLine
 10
-442.3646840425655
 20
-288.713832020621
 30
0.0
 11
-442.3646840425655
 21
-283.713832020621
 31
0.0
  0
LINE
  5
52
330
47
100
AcDbEntity
  8
1
  6
Continuous
 62
     7
100
AcDbLine
 10
-460.3646840425655
 20
-288.713832020621
 30
0.0
 11
-460.3646840425655
 21
-283.713832020621
 31
0.0
  0
LINE
  5
53
330
47
100
AcDbEntity
  8
1
  6
Continuous
 62
     7
100
AcDbLine
 10
-467.3646840425655
 20
-283.713832020621
 30
0.0
 11
-283.3646840425656
 21
-283.713832020621
 31
0.0
  0
LINE
  5
54
330
47
100
AcDbEntity
  8
1
  6
Continuous
 62
     7
100
AcDbLine
 10
-442.3646840425655
 20
-293.713832020621
 30
0.0
 11
-442.3646840425655
 21
-288.713832020621
 31
0.0
  0
LINE
  5
55
330
47
100
AcDbEntity
  8
1
  6
Continuous
 62
     7
100
AcDbLine
 10
-460.3646840425655
 20
-293.713832020621
 30
0.0
 11
-460.3646840425655
 21
-288.713832020621
 31
0.0
  0
LINE
  5
56
330
47
100
AcDbEntity
  8
1
  6
Continuous
 62
     7
100
AcDbLine
 10
-467.3646840425655
 20
-288.713832020621
 30
0.0
 11
-283.3646840425656
 21
-288.713832020621
 31
0.0
  0
LINE
  5
57
330
47
100
AcDbEntity
  8
1
  6
Continuous
 62
     7
100
AcDbLine
 10
-442.3646840425655
 20
-298.713832020621
 30
0.0
 11
-442.3646840425655
 21
-293.713832020621
 31
0.0
  0
LINE
  5
58
330
47
100
AcDbEntity
  8
1
  6
Continuous
 62
     7
100
AcDbLine
 10
-460.3646840425655
 20
-298.713832020621
 30
0.0
 11
-460.3646840425655
 21
-293.713832020621
 31
0.0
  0
LINE
  5
59
330
47
100
AcDbEntity
  8
1
  6
Continuous
 62
     7
100
AcDbLine
 10
-467.3646840425655
 20
-293.713832020621
 30
0.0
 11
-283.3646840425656
 21
-293.713832020621
 31
0.0
  0
LINE
  5
5A
330
47
100
AcDbEntity
  8
1
  6
Continuous
 62
     7
100
AcDbLine
 10
-442.3646840425655
 20
-303.713832020621
 30
0.0
 11
-442.3646840425655
 21
-298.713832020621
 31
0.0
  0
LINE
  5
5B
330
47
100
AcDbEntity
  8
1
  6
Continuous
 62
     7
100
AcDbLine
 10
-460.3646840425655
 20
-303.713832020621
 30
0.0
 11
-460.3646840425655
 21
-298.713832020621
 31
0.0
  0
LINE
  5
5C
330
47
100
AcDbEntity
  8
1
  6
Continuous
 62
     7
100
AcDbLine
 10
-467.3646840425655
 20
-298.713832020621
 30
0.0
 11
-283.3646840425656
 21
-298.713832020621
 31
0.0
  0
LINE
  5
5D
102
{ACAD_REACTORS
330
A2
102
}
330
47
100
AcDbEntity
  8
1
  6
Continuous
 62
     7
100
AcDbLine
 10
-292.5218092026598
 20
-313.1558299402407
 30
0.0
 11
-293.8551425359931
 21
-313.9250607094713
 31
0.0
  0
LINE
  5
5E
102
{ACAD_REACTORS
330
A2
102
}
330
47
100
AcDbEntity
  8
1
  6
Continuous
 62
     7
100
AcDbLine
 10
-293.6883833538229
 20
-313.0591954879731
 30
0.0
 11
-292.8549575049862
 21
-312.5783728828748
 31
0.0
  0
LINE
  5
5F
102
{ACAD_REACTORS
330
A2
102
}
330
47
100
AcDbEntity
  8
1
  6
Continuous
 62
     7
100
AcDbLine
 10
-293.6883833538229
 20
-311.5471653539544
 30
0.0
 11
-293.6883833538229
 21
-313.0591954879731
 31
0.0
  0
LINE
  5
60
102
{ACAD_REACTORS
330
A2
102
}
330
47
100
AcDbEntity
  8
1
  6
Continuous
 62
     7
100
AcDbLine
 10
-292.6883833538229
 20
-311.5471653539544
 30
0.0
 11
-293.6883833538229
 21
-311.5471653539544
 31
0.0
  0
LINE
  5
61
102
{ACAD_REACTORS
330
A2
102
}
330
47
100
AcDbEntity
  8
1
  6
Continuous
 62
     7
100
AcDbLine
 10
-293.6883833538229
 20
-310.8804986872877
 30
0.0
 11
-292.6883833538229
 21
-310.8804986872877
 31
0.0
  0
LINE
  5
62
102
{ACAD_REACTORS
330
A2
102
}
330
47
100
AcDbEntity
  8
1
  6
Continuous
 62
     7
100
AcDbLine
 10
-293.6883833538229
 20
-309.3684685532691
 30
0.0
 11
-293.6883833538229
 21
-310.8804986872877
 31
0.0
  0
LINE
  5
63
102
{ACAD_REACTORS
330
A2
102
}
330
47
100
AcDbEntity
  8
1
  6
Continuous
 62
     7
100
AcDbLine
 10
-292.8549575049862
 20
-309.8492911583672
 30
0.0
 11
-293.6883833538229
 21
-309.3684685532691
 31
0.0
  0
LINE
  5
64
102
{ACAD_REACTORS
330
A2
102
}
330
47
100
AcDbEntity
  8
1
  6
Continuous
 62
     7
100
AcDbLine
 10
-293.8551425359931
 20
-308.5026033317707
 30
0.0
 11
-292.5218092026598
 21
-309.2718341010016
 31
0.0
  0
LINE
  5
65
102
{ACAD_REACTORS
330
A3
102
}
330
47
100
AcDbEntity
  8
1
  6
Continuous
 62
     7
100
AcDbLine
 10
-301.0217166871563
 20
-312.8671014115578
 30
0.0
 11
-301.0217166871563
 21
-309.5605626296843
 31
0.0
  0
LINE
  5
66
102
{ACAD_REACTORS
330
A3
102
}
330
47
100
AcDbEntity
  8
1
  6
Continuous
 62
     7
100
AcDbLine
 10
-300.3550500204897
 20
-312.6745801033577
 30
0.0
 11
-300.3550500204897
 21
-312.8671014115578
 31
0.0
  0
LINE
  5
67
102
{ACAD_REACTORS
330
A3
102
}
330
47
100
AcDbEntity
  8
1
  6
Continuous
 62
     7
100
AcDbLine
 10
-300.3550500204897
 20
-309.5605626296843
 30
0.0
 11
-300.3550500204897
 21
-312.6745801033577
 31
0.0
  0
LINE
  5
68
102
{ACAD_REACTORS
330
A4
102
}
330
47
100
AcDbEntity
  8
1
  6
Continuous
 62
     7
100
AcDbLine
 10
-297.1882908383195
 20
-315.2712145556252
 30
0.0
 11
-299.3548649894826
 21
-314.0212679299541
 31
0.0
  0
LINE
  5
69
102
{ACAD_REACTORS
330
A4
102
}
330
47
100
AcDbEntity
  8
1
  6
Continuous
 62
     7
100
AcDbLine
 10
-299.0217166871563
 20
-313.4438108725883
 30
0.0
 11
-296.8551425359931
 21
-314.6937574982594
 31
0.0
  0
LINE
  5
6A
102
{ACAD_REACTORS
330
A4
102
}
330
47
100
AcDbEntity
  8
1
  6
Continuous
 62
     7
100
AcDbLine
 10
-299.0217166871563
 20
-308.7913318604536
 30
0.0
 11
-299.0217166871563
 21
-313.4438108725883
 31
0.0
  0
LINE
  5
6B
102
{ACAD_REACTORS
330
A4
102
}
330
47
100
AcDbEntity
  8
1
  6
Continuous
 62
     7
100
AcDbLine
 10
-299.6883833538229
 20
-313.4438108725884
 30
0.0
 11
-299.6883833538229
 21
-308.7913318604536
 31
0.0
  0
LINE
  5
6C
102
{ACAD_REACTORS
330
A5
102
}
330
47
100
AcDbEntity
  8
1
  6
Continuous
 62
     7
100
AcDbLine
 10
-295.5161503707797
 20
-307.8501316023487
 30
0.0
 11
-296.6883833538229
 21
-309.8804986872877
 31
0.0
  0
LINE
  5
6D
102
{ACAD_REACTORS
330
A5
102
}
330
47
100
AcDbEntity
  8
1
  6
Continuous
 62
     7
100
AcDbLine
 10
-295.0217166871563
 20
-314.4055629500192
 30
0.0
 11
-295.0217166871563
 21
-307.9826147085864
 31
0.0
  0
LINE
  5
6E
102
{ACAD_REACTORS
330
A5
102
}
330
47
100
AcDbEntity
  8
1
  6
Continuous
 62
     7
100
AcDbLine
 10
-295.6883833538229
 20
-311.213832020621
 30
0.0
 11
-295.6883833538229
 21
-314.4055629500192
 31
0.0
  0
LINE
  5
6F
102
{ACAD_REACTORS
330
A5
102
}
330
47
100
AcDbEntity
  8
1
  6
Continuous
 62
     7
100
AcDbLine
 10
-297.6883833538229
 20
-312.8662469479881
 30
0.0
 11
-297.6883833538229
 21
-311.213832020621
 31
0.0
  0
LINE
  5
70
102
{ACAD_REACTORS
330
A5
102
}
330
47
100
AcDbEntity
  8
1
  6
Continuous
 62
     7
100
AcDbLine
 10
-298.3550500204897
 20
-311.213832020621
 30
0.0
 11
-298.3550500204897
 21
-312.8662469479881
 31
0.0
  0
LINE
  5
71
102
{ACAD_REACTORS
330
A5
102
}
330
47
100
AcDbEntity
  8
1
  6
Continuous
 62
     7
100
AcDbLine
 10
-297.8606163368662
 20
-307.8501316023487
 30
0.0
 11
-296.6883833538229
 21
-309.8804986872877
 31
0.0
  0
LINE
  5
72
102
{ACAD_REACTORS
330
A5
102
}
330
47
100
AcDbEntity
  8
1
  6
Continuous
 62
     7
100
AcDbLine
 10
-298.3550500204897
 20
-311.213832020621
 30
0.0
 11
-298.3550500204897
 21
-307.9826147085864
 31
0.0
  0
LINE
  5
73
330
47
100
AcDbEntity
  8
1
  6
Continuous
 62
     7
100
AcDbLine
 10
-296.6883833538229
 20
-316.213832020621
 30
0.0
 11
-305.1048186289645
 21
-311.3581962849625
 31
0.0
  0
LINE
  5
74
330
47
100
AcDbEntity
  8
1
  6
Continuous
 62
     7
100
AcDbLine
 10
-288.2719480786815
 20
-311.3581962849625
 30
0.0
 11
-296.6883833538229
 21
-316.213832020621
 31
0.0
  0
LINE
  5
75
330
47
100
AcDbEntity
  8
1
  6
Continuous
 62
     7
100
AcDbLine
 10
-296.6883833538229
 20
-306.213832020621
 30
0.0
 11
-288.2719480786815
 21
-311.0694677562797
 31
0.0
  0
LINE
  5
76
330
47
100
AcDbEntity
  8
1
  6
Continuous
 62
     7
100
AcDbLine
 10
-305.1048186289645
 20
-311.0694677562797
 30
0.0
 11
-296.6883833538229
 21
-306.213832020621
 31
0.0
  0
LINE
  5
77
102
{ACAD_REACTORS
330
A5
102
}
330
47
100
AcDbEntity
  8
1
  6
Continuous
 62
     7
100
AcDbLine
 10
-297.6883833538229
 20
-309.4817812130522
 30
0.0
 11
-297.6883833538229
 21
-311.213832020621
 31
0.0
  0
LINE
  5
78
102
{ACAD_REACTORS
330
A5
102
}
330
47
100
AcDbEntity
  8
1
  6
Continuous
 62
     7
100
AcDbLine
 10
-296.8327209211204
 20
-310.963832020621
 30
0.0
 11
-297.6883833538229
 21
-309.4817812130522
 31
0.0
  0
LINE
  5
79
102
{ACAD_REACTORS
330
A5
102
}
330
47
100
AcDbEntity
  8
1
  6
Continuous
 62
     7
100
AcDbLine
 10
-295.6883833538229
 20
-309.4817812130522
 30
0.0
 11
-296.5440457865255
 21
-310.963832020621
 31
0.0
  0
LINE
  5
7A
102
{ACAD_REACTORS
330
A5
102
}
330
47
100
AcDbEntity
  8
1
  6
Continuous
 62
     7
100
AcDbLine
 10
-295.6883833538229
 20
-311.213832020621
 30
0.0
 11
-295.6883833538229
 21
-309.4817812130522
 31
0.0
  0
LINE
  5
7B
102
{ACAD_REACTORS
330
A2
102
}
330
47
100
AcDbEntity
  8
1
  6
Continuous
 62
     7
100
AcDbLine
 10
-294.3550500204896
 20
-313.6363321807884
 30
0.0
 11
-294.3550500204896
 21
-308.7913318604536
 31
0.0
  0
LINE
  5
7C
330
47
100
AcDbEntity
  8
1
  6
Continuous
 62
     7
100
AcDbLine
 10
-467.3646840425655
 20
-31.71383202062089
 30
0.0
 11
-467.3646840425655
 21
-318.7138320206211
 31
0.0
  0
LINE
  5
7D
330
47
100
AcDbEntity
  8
1
  6
Continuous
 62
     7
100
AcDbLine
 10
-283.3646840425656
 20
-31.71383202062089
 30
0.0
 11
-467.3646840425655
 21
-31.71383202062089
 31
0.0
  0
LINE
  5
7E
330
47
100
AcDbEntity
  8
1
  6
Continuous
 62
     7
100
AcDbLine
 10
-283.3646840425656
 20
-318.7138320206211
 30
0.0
 11
-283.3646840425656
 21
-31.71383202062089
 31
0.0
  0
LINE
  5
7F
330
47
100
AcDbEntity
  8
1
  6
Continuous
 62
     7
100
AcDbLine
 10
-278.3646840425656
 20
-26.71383202062089
 30
0.0
 11
-488.3646840425657
 21
-26.71383202062089
 31
0.0
  0
LINE
  5
80
330
47
100
AcDbEntity
  8
1
  6
Continuous
 62
     7
100
AcDbLine
 10
-488.3646840425657
 20
-26.71383202062089
 30
0.0
 11
-488.3646840425657
 21
-323.713832020621
 31
0.0
  0
LINE
  5
81
330
47
100
AcDbEntity
  8
1
  6
Continuous
 62
     7
100
AcDbLine
 10
-488.3646840425657
 20
-323.713832020621
 30
0.0
 11
-278.3646840425656
 21
-323.713832020621
 31
0.0
  0
LINE
  5
82
330
47
100
AcDbEntity
  8
1
  6
Continuous
 62
     7
100
AcDbLine
 10
-278.3646840425656
 20
-323.713832020621
 30
0.0
 11
-278.3646840425656
 21
-26.71383202062089
 31
0.0
  0
LINE
  5
83
330
47
100
AcDbEntity
  8
1
  6
Continuous
 62
     7
100
AcDbLine
 10
-488.3646840425657
 20
-175.2138320206212
 30
0.0
 11
-473.3646840425657
 21
-175.2138320206212
 31
0.0
  0
LINE
  5
84
330
47
100
AcDbEntity
  8
1
  6
Continuous
 62
     7
100
AcDbLine
 10
-467.3646840425655
 20
-313.7138320206211
 30
0.0
 11
-437.3646840425655
 21
-313.7138320206211
 31
0.0
  0
LINE
  5
85
330
47
100
AcDbEntity
  8
1
  6
Continuous
 62
     7
100
AcDbLine
 10
-437.3646840425655
 20
-303.713832020621
 30
0.0
 11
-437.3646840425655
 21
-318.713832020621
 31
0.0
  0
LINE
  5
86
330
47
100
AcDbEntity
  8
1
  6
Continuous
 62
     7
100
AcDbLine
 10
-310.0120826650802
 20
-303.713832020621
 30
0.0
 11
-310.0120826650802
 21
-318.713832020621
 31
0.0
  0
LINE
  5
87
330
47
100
AcDbEntity
  8
1
  6
Continuous
 62
     7
100
AcDbLine
 10
-327.3646840425656
 20
-303.713832020621
 30
0.0
 11
-327.3646840425656
 21
-318.713832020621
 31
0.0
  0
LINE
  5
88
330
47
100
AcDbEntity
  8
1
  6
Continuous
 62
     7
100
AcDbLine
 10
-467.3646840425655
 20
-303.713832020621
 30
0.0
 11
-467.3646840425655
 21
-318.7138320206211
 31
0.0
  0
LINE
  5
89
330
47
100
AcDbEntity
  8
1
  6
Continuous
 62
     7
100
AcDbLine
 10
-467.3646840425655
 20
-308.7138320206211
 30
0.0
 11
-437.3646840425655
 21
-308.7138320206211
 31
0.0
  0
ARC
  5
8A
102
{ACAD_REACTORS
330
A2
102
}
330
47
100
AcDbEntity
  8
1
  6
Continuous
 62
     7
100
AcDbCircle
 10
-292.6883833538229
 20
-312.8671014115578
 30
0.0
 40
0.3333333333333141
100
AcDbArc
 50
299.9816393688337
 51
119.9816393688494
  0
ARC
  5
8B
102
{ACAD_REACTORS
330
A2
102
}
330
47
100
AcDbEntity
  8
1
  6
Continuous
 62
     7
100
AcDbCircle
 10
-292.6883833538229
 20
-311.213832020621
 30
0.0
 40
0.3333333333334281
100
AcDbArc
 50
270.0
 51
90.0
  0
ARC
  5
8C
102
{ACAD_REACTORS
330
A2
102
}
330
47
100
AcDbEntity
  8
1
  6
Continuous
 62
     7
100
AcDbCircle
 10
-292.6883833538229
 20
-309.5605626296843
 30
0.0
 40
0.3333333333333993
100
AcDbArc
 50
240.0183606311409
 51
60.01836063114676
  0
ARC
  5
8D
102
{ACAD_REACTORS
330
A3
102
}
330
47
100
AcDbEntity
  8
1
  6
Continuous
 62
     7
100
AcDbCircle
 10
-300.6883833538229
 20
-312.8671014115578
 30
0.0
 40
0.3333333333333712
100
AcDbArc
 50
180.0
 51
0.0
  0
ARC
  5
8E
102
{ACAD_REACTORS
330
A3
102
}
330
47
100
AcDbEntity
  8
1
  6
Continuous
 62
     7
100
AcDbCircle
 10
-300.6883833538229
 20
-309.5605626296843
 30
0.0
 40
0.3333333333332007
100
AcDbArc
 50
0.0
 51
180.0
  0
ARC
  5
8F
102
{ACAD_REACTORS
330
A4
102
}
330
47
100
AcDbEntity
  8
1
  6
Continuous
 62
     7
100
AcDbCircle
 10
-297.0217166871563
 20
-314.9824860269423
 30
0.0
 40
0.3333333333333709
100
AcDbArc
 50
240.0183606311493
 51
60.01836063114937
  0
ARC
  5
90
102
{ACAD_REACTORS
330
A4
102
}
330
47
100
AcDbEntity
  8
1
  6
Continuous
 62
     7
100
AcDbCircle
 10
-299.3550500204897
 20
-308.7913318604536
 30
0.0
 40
0.3333333333334281
100
AcDbArc
 50
0.0
 51
180.0
  0
ARC
  5
91
102
{ACAD_REACTORS
330
A5
102
}
330
47
100
AcDbEntity
  8
1
  6
Continuous
 62
     7
100
AcDbCircle
 10
-295.2866828996316
 20
-307.9826147085864
 30
0.0
 40
0.2649662124753149
100
AcDbArc
 50
0.0
 51
149.9999999999818
  0
ARC
  5
92
102
{ACAD_REACTORS
330
A5
102
}
330
47
100
AcDbEntity
  8
1
  6
Continuous
 62
     7
100
AcDbCircle
 10
-295.3550500204896
 20
-314.4055629500192
 30
0.0
 40
0.3333333333333144
100
AcDbArc
 50
180.0
 51
0.0
  0
ARC
  5
93
102
{ACAD_REACTORS
330
A5
102
}
330
47
100
AcDbEntity
  8
1
  6
Continuous
 62
     7
100
AcDbCircle
 10
-298.0217166871563
 20
-312.8662469479881
 30
0.0
 40
0.3333333333334281
100
AcDbArc
 50
180.0
 51
0.0
  0
ARC
  5
94
102
{ACAD_REACTORS
330
A5
102
}
330
47
100
AcDbEntity
  8
1
  6
Continuous
 62
     7
100
AcDbCircle
 10
-298.0900838080144
 20
-307.9826147085864
 30
0.0
 40
0.2649662124753812
100
AcDbArc
 50
30.00000000000593
 51
180.0
  0
ARC
  5
95
102
{ACAD_REACTORS
330
A2
102
}
330
47
100
AcDbEntity
  8
1
  6
Continuous
 62
     7
100
AcDbCircle
 10
-294.0217166871563
 20
-313.6363321807884
 30
0.0
 40
0.3333333333333144
100
AcDbArc
 50
180.0
 51
299.9816393688458
  0
ARC
  5
96
102
{ACAD_REACTORS
330
A2
102
}
330
47
100
AcDbEntity
  8
1
  6
Continuous
 62
     7
100
AcDbCircle
 10
-294.0217166871563
 20
-308.7913318604536
 30
0.0
 40
0.3333333333334201
100
AcDbArc
 50
60.01836063115424
 51
180.0
  0
ARC
  5
97
330
47
100
AcDbEntity
  8
1
  6
Continuous
 62
     7
100
AcDbCircle
 10
-288.355235154263
 20
-311.213832020621
 30
0.0
 40
0.1666666666667063
100
AcDbArc
 50
299.9816393688239
 51
60.01836063113699
  0
ARC
  5
98
330
47
100
AcDbEntity
  8
1
  6
Continuous
 62
     7
100
AcDbCircle
 10
-305.0215315533828
 20
-311.213832020621
 30
0.0
 40
0.1666666666665945
100
AcDbArc
 50
119.9816393689138
 51
240.0183606311253
  0
ARC
  5
99
102
{ACAD_REACTORS
330
A4
102
}
330
47
100
AcDbEntity
  8
1
  6
Continuous
 62
     7
100
AcDbCircle
 10
-299.0217166871563
 20
-313.4438108725883
 30
0.0
 40
0.6666666666666288
100
AcDbArc
 50
180.0000000000097
 51
240.0183606311578
  0
ARC
  5
9A
102
{ACAD_REACTORS
330
A5
102
}
330
47
100
AcDbEntity
  8
1
  6
Continuous
 62
     7
100
AcDbCircle
 10
-296.6883833538229
 20
-310.8804986872877
 30
0.0
 40
0.1666666666667365
100
AcDbArc
 50
209.9999999999786
 51
330.0000000000116
  0
MTEXT
  5
9C
330
47
100
AcDbEntity
  8
1
 62
     7
100
AcDbMText
 10
-318.6883833538229
 20
-307.453192599865
 30
0.0
 40
3.0
 41
0.0
 71
     5
 72
     1
  1
Scale
  7
CONVERTER_11
 73
     1
 44
1.32052821128451
  0
MTEXT
  5
9D
330
47
100
AcDbEntity
  8
1
 62
     7
100
AcDbMText
 10
-466.3646840425655
 20
-316.2138320206211
 30
0.0
 40
3.0
 41
0.0
 71
     4
 72
     1
  1
Sign.
  7
CONVERTER_11
 73
     1
 44
1.32052821128451
  0
MTEXT
  5
9E
330
47
100
AcDbEntity
  8
1
 62
     7
100
AcDbMText
 10
-466.3646840425655
 20
-311.2138320206211
 30
0.0
 40
3.0
 41
0.0
 71
     4
 72
     1
  1
Date
  7
CONVERTER_11
 73
     1
 44
1.32052821128451
  0
MTEXT
  5
9F
330
47
100
AcDbEntity
  8
1
 62
     7
100
AcDbMText
 10
-472.3646840425657
 20
-172.2138320206212
 30
0.0
 40
4.0
 41
0.0
 71
     5
 72
     1
  1
Diritti riservati      All rights reserved
  7
CONVERTER_11
 11
0.0
 21
1.0
 31
0.0
 73
     1
 44
1.32052821128451
  0
MTEXT
  5
A1
330
47
100
AcDbEntity
  8
1
 62
     7
100
AcDbMText
 10
-452.3646840425655
 20
-306.2138320206211
 30
0.0
 40
2.5
 41
0.0
 71
     5
 72
     1
  1
dimensions in mm
  7
CONVERTER_12
 73
     1
 44
0.60024009603842
  0
HATCH
  5
A2
330
47
100
AcDbEntity
  8
1
  6
Continuous
 62
     7
100
AcDbHatch
 10
0.0
 20
0.0
 30
0.0
210
0.0
220
0.0
230
1.0
  2
SOLID
 70
     1
 71
     1
 91
        1
 92
        1
 93
       14
 72
     2
 10
-294.0217166871563
 20
-308.7913318604536
 40
0.3333333333334201
 50
60.01836063115424
 51
180.0
 73
     1
 72
     1
 10
-294.3550500204896
 20
-308.7913318604536
 11
-294.3550500204896
 21
-313.6363321807884
 72
     2
 10
-294.0217166871563
 20
-313.6363321807884
 40
0.3333333333333144
 50
180.0
 51
299.9816393688458
 73
     1
 72
     1
 10
-293.8551425359931
 20
-313.9250607094713
 11
-292.5218092026598
 21
-313.1558299402407
 72
     2
 10
-292.6883833538229
 20
-312.8671014115578
 40
0.3333333333333141
 50
299.9816393688337
 51
479.9816393688493
 73
     1
 72
     1
 10
-292.8549575049862
 20
-312.5783728828748
 11
-293.6883833538229
 21
-313.0591954879731
 72
     1
 10
-293.6883833538229
 20
-313.0591954879731
 11
-293.6883833538229
 21
-311.5471653539544
 72
     1
 10
-293.6883833538229
 20
-311.5471653539544
 11
-292.6883833538229
 21
-311.5471653539544
 72
     2
 10
-292.6883833538229
 20
-311.213832020621
 40
0.3333333333334281
 50
270.0
 51
450.0
 73
     1
 72
     1
 10
-292.6883833538229
 20
-310.8804986872877
 11
-293.6883833538229
 21
-310.8804986872877
 72
     1
 10
-293.6883833538229
 20
-310.8804986872877
 11
-293.6883833538229
 21
-309.3684685532691
 72
     1
 10
-293.6883833538229
 20
-309.3684685532691
 11
-292.8549575049862
 21
-309.8492911583672
 72
     2
 10
-292.6883833538229
 20
-309.5605626296843
 40
0.3333333333333993
 50
240.0183606311409
 51
420.0183606311468
 73
     1
 72
     1
 10
-292.5218092026598
 20
-309.2718341010016
 11
-293.8551425359931
 21
-308.5026033317707
 97
       14
330
8C
330
63
330
62
330
61
330
8B
330
60
330
5F
330
5E
330
8A
330
5D
330
95
330
7B
330
96
330
64
 75
     0
 76
     1
 98
        1
 10
0.0
 20
0.0
  0
HATCH
  5
A3
330
47
100
AcDbEntity
  8
1
  6
Continuous
 62
     7
100
AcDbHatch
 10
0.0
 20
0.0
 30
0.0
210
0.0
220
0.0
230
1.0
  2
SOLID
 70
     1
 71
     1
 91
        1
 92
        1
 93
        5
 72
     2
 10
-300.6883833538229
 20
-309.5605626296843
 40
0.3333333333332007
 50
0.0
 51
180.0
 73
     1
 72
     1
 10
-301.0217166871563
 20
-309.5605626296843
 11
-301.0217166871563
 21
-312.8671014115578
 72
     2
 10
-300.6883833538229
 20
-312.8671014115578
 40
0.3333333333333712
 50
180.0
 51
360.0
 73
     1
 72
     1
 10
-300.3550500204897
 20
-312.8671014115578
 11
-300.3550500204897
 21
-312.6745801033577
 72
     1
 10
-300.3550500204897
 20
-312.6745801033577
 11
-300.3550500204897
 21
-309.5605626296843
 97
        5
330
8E
330
65
330
8D
330
66
330
67
 75
     0
 76
     1
 98
        1
 10
0.0
 20
0.0
  0
HATCH
  5
A4
330
47
100
AcDbEntity
  8
1
  6
Continuous
 62
     7
100
AcDbHatch
 10
0.0
 20
0.0
 30
0.0
210
0.0
220
0.0
230
1.0
  2
SOLID
 70
     1
 71
     1
 91
        1
 92
        1
 93
        7
 72
     2
 10
-299.3550500204897
 20
-308.7913318604536
 40
0.3333333333334281
 50
0.0
 51
180.0
 73
     1
 72
     1
 10
-299.6883833538229
 20
-308.7913318604536
 11
-299.6883833538229
 21
-313.4438108725884
 72
     2
 10
-299.0217166871563
 20
-313.4438108725883
 40
0.6666666666666288
 50
180.0000000000097
 51
240.0183606311578
 73
     1
 72
     1
 10
-299.3548649894826
 20
-314.0212679299541
 11
-297.1882908383195
 21
-315.2712145556252
 72
     2
 10
-297.0217166871563
 20
-314.9824860269423
 40
0.3333333333333709
 50
240.0183606311493
 51
420.0183606311494
 73
     1
 72
     1
 10
-296.8551425359931
 20
-314.6937574982594
 11
-299.0217166871563
 21
-313.4438108725883
 72
     1
 10
-299.0217166871563
 20
-313.4438108725883
 11
-299.0217166871563
 21
-308.7913318604536
 97
        7
330
90
330
6B
330
99
330
68
330
8F
330
69
330
6A
 75
     0
 76
     1
 98
        1
 10
0.0
 20
0.0
  0
HATCH
  5
A5
330
47
100
AcDbEntity
  8
1
  6
Continuous
 62
     7
100
AcDbHatch
 10
0.0
 20
0.0
 30
0.0
210
0.0
220
0.0
230
1.0
  2
SOLID
 70
     1
 71
     1
 91
        1
 92
        1
 93
       16
 72
     2
 10
-295.2866828996316
 20
-307.9826147085864
 40
0.2649662124753149
 50
210.0000000000182
 51
360.0
 73
     0
 72
     1
 10
-295.0217166871563
 20
-307.9826147085864
 11
-295.0217166871563
 21
-314.4055629500192
 72
     2
 10
-295.3550500204896
 20
-314.4055629500192
 40
0.3333333333333144
 50
0.0
 51
180.0
 73
     0
 72
     1
 10
-295.6883833538229
 20
-314.4055629500192
 11
-295.6883833538229
 21
-311.213832020621
 72
     1
 10
-295.6883833538229
 20
-311.213832020621
 11
-295.6883833538229
 21
-309.4817812130522
 72
     1
 10
-295.6883833538229
 20
-309.4817812130522
 11
-296.5440457865255
 21
-310.963832020621
 72
     2
 10
-296.6883833538229
 20
-310.8804986872877
 40
0.1666666666667365
 50
29.99999999998836
 51
150.0000000000214
 73
     0
 72
     1
 10
-296.8327209211204
 20
-310.963832020621
 11
-297.6883833538229
 21
-309.4817812130522
 72
     1
 10
-297.6883833538229
 20
-309.4817812130522
 11
-297.6883833538229
 21
-311.213832020621
 72
     1
 10
-297.6883833538229
 20
-311.213832020621
 11
-297.6883833538229
 21
-312.8662469479881
 72
     2
 10
-298.0217166871563
 20
-312.8662469479881
 40
0.3333333333334281
 50
0.0
 51
180.0
 73
     0
 72
     1
 10
-298.3550500204897
 20
-312.8662469479881
 11
-298.3550500204897
 21
-311.213832020621
 72
     1
 10
-298.3550500204897
 20
-311.213832020621
 11
-298.3550500204897
 21
-307.9826147085864
 72
     2
 10
-298.0900838080144
 20
-307.9826147085864
 40
0.2649662124753812
 50
180.0
 51
329.9999999999941
 73
     0
 72
     1
 10
-297.8606163368662
 20
-307.8501316023487
 11
-296.6883833538229
 21
-309.8804986872877
 72
     1
 10
-296.6883833538229
 20
-309.8804986872877
 11
-295.5161503707797
 21
-307.8501316023487
 97
       16
330
71
330
94
330
72
330
70
330
93
330
6F
330
77
330
78
330
9A
330
79
330
7A
330
6E
330
92
330
6D
330
91
330
6C
 75
     0
 76
     1
 98
        1
 10
0.0
 20
0.0
  0
ENDBLK
  5
49
330
47
100
AcDbEntity
  8
0
100
AcDbBlockEnd
  0
BLOCK
  5
4C
330
4A
100
AcDbEntity
  8
0
100
AcDbBlockBegin
  2
A4
 70
     0
 10
1110.810631914869
 20
-2397.047664041242
 30
0.0
  3
A4
  1

  0
INSERT
  5
4B
330
4A
100
AcDbEntity
  8
1
100
AcDbBlockReference
  2
_formato_A4
 10
1110.810631914868
 20
-2397.047664041242
 30
0.0
 41
10.0
 42
10.0
 43
10.0
  0
ENDBLK
  5
4D
330
4A
100
AcDbEntity
  8
0
100
AcDbBlockEnd
  0
BLOCK
  5
234
330
22C
100
AcDbEntity
  8
0
100
AcDbBlockBegin
  2
*D3
 70
     1
 10
0.0
 20
0.0
 30
0.0
  3
*D3
  1

  0
LINE
  5
22D
330
22C
100
AcDbEntity
  8
1
  6
Continuous
 62
     2
100
AcDbLine
 10
114.7650233370529
 20
-962.2995231453453
 30
0.0
 11
114.7650233370529
 21
-1352.299523145333
 31
0.0
  0
LINE
  5
22E
330
22C
100
AcDbEntity
  8
1
  6
Continuous
 62
     2
100
AcDbLine
 10
-78.76044632677213
 20
-962.2995231453453
 30
0.0
 11
124.7650233370529
 21
-962.2995231453453
 31
0.0
  0
LINE
  5
22F
330
22C
100
AcDbEntity
  8
1
  6
Continuous
 62
     2
100
AcDbLine
 10
-78.76044632677213
 20
-1352.299523145333
 30
0.0
 11
124.7650233370529
 21
-1352.299523145333
 31
0.0
  0
SOLID
  5
230
330
22C
100
AcDbEntity
  8
1
 62
     2
100
AcDbTrace
 10
118.7145982646747
 20
-992.2995231453453
 30
0.0
 11
110.815448409431
 21
-992.2995231453453
 31
0.0
 12
114.7650233370529
 22
-962.2995231453453
 32
0.0
 13
114.7650233370529
 23
-962.2995231453453
 33
0.0
  0
SOLID
  5
231
330
22C
100
AcDbEntity
  8
1
 62
     2
100
AcDbTrace
 10
110.815448409431
 20
-1322.299523145333
 30
0.0
 11
118.7145982646747
 21
-1322.299523145333
 31
0.0
 12
114.7650233370529
 22
-1352.299523145333
 32
0.0
 13
114.7650233370529
 23
-1352.299523145333
 33
0.0
  0
MTEXT
  5
233
330
22C
100
AcDbEntity
  8
1
 62
     4
100
AcDbMText
 10
94.76502333705287
 20
-1193.299523145339
 30
0.0
 40
30.0
 41
0.0
 71
     7
 72
     1
  1
390
  7
CONVERTER_13
 11
0.0
 21
1.0
 31
0.0
 73
     1
 44
0.60024009603842
  0
ENDBLK
  5
235
330
22C
100
AcDbEntity
  8
0
100
AcDbBlockEnd
  0
BLOCK
  5
242
330
238
100
AcDbEntity
  8
0
100
AcDbBlockBegin
  2
*D4
 70
     1
 10
0.0
 20
0.0
 30
0.0
  3
*D4
  1

  0
LINE
  5
239
330
238
100
AcDbEntity
  8
1
  6
Continuous
 62
     2
100
AcDbLine
 10
357.6228596507804
 20
-593.0641613360896
 30
0.0
 11
452.2244266643471
 21
-592.8015816055987
 31
0.0
  0
LINE
  5
23A
330
238
100
AcDbEntity
  8
1
  6
Continuous
 62
     2
100
AcDbLine
 10
452.2244266643471
 20
-592.8015816055987
 30
0.0
 11
527.2244266642655
 21
-592.593408734805
 31
0.0
  0
LINE
  5
23B
330
238
100
AcDbEntity
  8
1
  6
Continuous
 62
     2
100
AcDbLine
 10
527.2244266642655
 20
-592.593408734805
 30
0.0
 11
587.2241955405655
 21
-592.4268710796857
 31
0.0
  0
LINE
  5
23C
330
238
100
AcDbEntity
  8
1
  6
Continuous
 62
     2
100
AcDbLine
 10
451.7842273515071
 20
-434.2076767557723
 30
0.0
 11
452.2521829402003
 21
-602.8015430849821
 31
0.0
  0
LINE
  5
23D
330
238
100
AcDbEntity
  8
1
  6
Continuous
 62
     2
100
AcDbLine
 10
526.892771575998
 20
-473.105544993534
 30
0.0
 11
527.2521829401187
 21
-602.5933702141884
 31
0.0
  0
LINE
  5
23E
330
238
100
AcDbEntity
  8
1
  6
Continuous
 62
     2
100
AcDbLine
 10
526.7842273514254
 20
-433.9995038849787
 30
0.0
 11
526.8568313715193
 21
-460.1570982260812
 31
0.0
  0
SOLID
  5
23F
330
238
100
AcDbEntity
  8
1
 62
     2
100
AcDbTrace
 10
422.2355047753167
 20
-596.8344101467758
 30
0.0
 11
422.2135796770775
 21
-588.9352907195444
 31
0.0
 12
452.2244266643471
 22
-592.8015816055987
 32
0.0
 13
452.2244266643471
 23
-592.8015816055987
 33
0.0
  0
SOLID
  5
240
330
238
100
AcDbEntity
  8
1
 62
     2
100
AcDbTrace
 10
557.2133485532963
 20
-588.5605801936314
 30
0.0
 11
557.2352736515347
 21
-596.4596996208628
 31
0.0
 12
527.2244266642655
 22
-592.593408734805
 32
0.0
 13
527.2244266642655
 23
-592.593408734805
 33
0.0
  0
MTEXT
  5
241
330
238
100
AcDbEntity
  8
1
 62
     4
100
AcDbMText
 10
357.567347099074
 20
-573.0642383773229
 30
0.0
 40
30.0
 41
0.0
 71
     7
 72
     1
  1
75
  7
CONVERTER_13
 11
0.9999961479383347
 21
0.002775627585322135
 31
0.0
 73
     1
 44
0.60024009603842
  0
ENDBLK
  5
243
330
238
100
AcDbEntity
  8
0
100
AcDbBlockEnd
  0
BLOCK
  5
24D
330
246
100
AcDbEntity
  8
0
100
AcDbBlockBegin
  2
*D5
 70
     1
 10
0.0
 20
0.0
 30
0.0
  3
*D5
  1

  0
LINE
  5
247
330
246
100
AcDbEntity
  8
1
  6
Continuous
 62
     2
100
AcDbLine
 10
-80.5021263439682
 20
-594.7095125551566
 30
0.0
 11
-425.5021263439774
 21
-594.7095125551566
 31
0.0
  0
LINE
  5
248
330
246
100
AcDbEntity
  8
1
  6
Continuous
 62
     2
100
AcDbLine
 10
-80.5021263439682
 20
-429.5005892792334
 30
0.0
 11
-80.5021263439682
 21
-604.7095125551566
 31
0.0
  0
LINE
  5
249
330
246
100
AcDbEntity
  8
1
  6
Continuous
 62
     2
100
AcDbLine
 10
-425.5021263439774
 20
-429.5005892792334
 30
0.0
 11
-425.5021263439774
 21
-604.7095125551566
 31
0.0
  0
SOLID
  5
24A
330
246
100
AcDbEntity
  8
1
 62
     2
100
AcDbTrace
 10
-110.5021263439682
 20
-598.6590874827784
 30
0.0
 11
-110.5021263439682
 21
-590.7599376275348
 31
0.0
 12
-80.5021263439682
 22
-594.7095125551566
 32
0.0
 13
-80.5021263439682
 23
-594.7095125551566
 33
0.0
  0
SOLID
  5
24B
330
246
100
AcDbEntity
  8
1
 62
     2
100
AcDbTrace
 10
-395.5021263439774
 20
-590.7599376275348
 30
0.0
 11
-395.5021263439774
 21
-598.6590874827784
 31
0.0
 12
-425.5021263439774
 22
-594.7095125551566
 32
0.0
 13
-425.5021263439774
 23
-594.7095125551566
 33
0.0
  0
MTEXT
  5
24C
330
246
100
AcDbEntity
  8
1
 62
     4
100
AcDbMText
 10
-289.0021263439728
 20
-574.7095125551566
 30
0.0
 40
30.0
 41
0.0
 71
     7
 72
     1
  1
345
  7
CONVERTER_13
 11
0.9999999999970619
 21
2.424068405545306E-6
 31
0.0
 73
     1
 44
0.60024009603842
  0
ENDBLK
  5
24E
330
246
100
AcDbEntity
  8
0
100
AcDbBlockEnd
  0
BLOCK
  5
258
330
251
100
AcDbEntity
  8
0
100
AcDbBlockBegin
  2
*D6
 70
     1
 10
0.0
 20
0.0
 30
0.0
  3
*D6
  1

  0
LINE
  5
252
330
251
100
AcDbEntity
  8
1
  6
Continuous
 62
     2
100
AcDbLine
 10
114.7650233370529
 20
8.50047685467538
 30
0.0
 11
114.7650233370529
 21
-431.4995231453282
 31
0.0
  0
LINE
  5
253
330
251
100
AcDbEntity
  8
1
  6
Continuous
 62
     2
100
AcDbLine
 10
-82.50106021003873
 20
8.50047685467538
 30
0.0
 11
124.7650233370529
 21
8.50047685467538
 31
0.0
  0
LINE
  5
254
330
251
100
AcDbEntity
  8
1
  6
Continuous
 62
     2
100
AcDbLine
 10
-82.50106021006354
 20
-431.4995231453282
 30
0.0
 11
124.7650233370529
 21
-431.4995231453282
 31
0.0
  0
SOLID
  5
255
330
251
100
AcDbEntity
  8
1
 62
     2
100
AcDbTrace
 10
118.7145982646747
 20
-21.49952314532462
 30
0.0
 11
110.815448409431
 21
-21.49952314532462
 31
0.0
 12
114.7650233370529
 22
8.50047685467538
 32
0.0
 13
114.7650233370529
 23
8.50047685467538
 33
0.0
  0
SOLID
  5
256
330
251
100
AcDbEntity
  8
1
 62
     2
100
AcDbTrace
 10
110.815448409431
 20
-401.4995231453282
 30
0.0
 11
118.7145982646747
 21
-401.4995231453282
 31
0.0
 12
114.7650233370529
 22
-431.4995231453282
 32
0.0
 13
114.7650233370529
 23
-431.4995231453282
 33
0.0
  0
MTEXT
  5
257
330
251
100
AcDbEntity
  8
1
 62
     4
100
AcDbMText
 10
94.76502333705287
 20
-247.4995231453264
 30
0.0
 40
30.0
 41
0.0
 71
     7
 72
     1
  1
440
  7
CONVERTER_13
 11
0.0
 21
1.0
 31
0.0
 73
     1
 44
0.60024009603842
  0
ENDBLK
  5
259
330
251
100
AcDbEntity
  8
0
100
AcDbBlockEnd
  0
BLOCK
  5
263
330
25C
100
AcDbEntity
  8
0
100
AcDbBlockBegin
  2
*D7
 70
     1
 10
0.0
 20
0.0
 30
0.0
  3
*D7
  1

  0
LINE
  5
25D
330
25C
100
AcDbEntity
  8
1
  6
Continuous
 62
     2
100
AcDbLine
 10
-417.0021263439583
 20
-1549.71810855606
 30
0.0
 11
-89.00212634394609
 21
-1549.71810855606
 31
0.0
  0
LINE
  5
25E
330
25C
100
AcDbEntity
  8
1
  6
Continuous
 62
     2
100
AcDbLine
 10
-417.0021263439583
 20
-1363.912157856669
 30
0.0
 11
-417.0021263439583
 21
-1559.71810855606
 31
0.0
  0
LINE
  5
25F
330
25C
100
AcDbEntity
  8
1
  6
Continuous
 62
     2
100
AcDbLine
 10
-89.00212634394609
 20
-1363.912157856669
 30
0.0
 11
-89.00212634394609
 21
-1559.71810855606
 31
0.0
  0
SOLID
  5
260
330
25C
100
AcDbEntity
  8
1
 62
     2
100
AcDbTrace
 10
-387.0021263439583
 20
-1545.768533628438
 30
0.0
 11
-387.0021263439583
 21
-1553.667683483682
 31
0.0
 12
-417.0021263439583
 22
-1549.71810855606
 32
0.0
 13
-417.0021263439583
 23
-1549.71810855606
 33
0.0
  0
SOLID
  5
261
330
25C
100
AcDbEntity
  8
1
 62
     2
100
AcDbTrace
 10
-119.0021263439461
 20
-1553.667683483682
 30
0.0
 11
-119.0021263439461
 21
-1545.768533628438
 31
0.0
 12
-89.00212634394609
 22
-1549.71810855606
 32
0.0
 13
-89.00212634394609
 23
-1549.71810855606
 33
0.0
  0
MTEXT
  5
262
330
25C
100
AcDbEntity
  8
1
 62
     4
100
AcDbMText
 10
-289.0021263439522
 20
-1529.71810855606
 30
0.0
 40
30.0
 41
0.0
 71
     7
 72
     1
  1
328
  7
CONVERTER_13
 11
0.9999999999970619
 21
2.424068405545306E-6
 31
0.0
 73
     1
 44
0.60024009603842
  0
ENDBLK
  5
264
330
25C
100
AcDbEntity
  8
0
100
AcDbBlockEnd
  0
BLOCK
  5
26B
330
267
100
AcDbEntity
  8
0
100
AcDbBlockBegin
  2
*D8
 70
     1
 10
0.0
 20
0.0
 30
0.0
  3
*D8
  1

  0
LINE
  5
268
330
267
100
AcDbEntity
  8
1
  6
Continuous
 62
     2
100
AcDbLine
 10
-417.0021263440002
 20
-1351.299523145333
 30
0.0
 11
-580.5266743709276
 21
-1250.351371526215
 31
0.0
  0
SOLID
  5
269
330
267
100
AcDbEntity
  8
1
 62
     2
100
AcDbTrace
 10
-446.9018945487272
 20
-1337.483119727203
 30
0.0
 11
-442.7525038926286
 21
-1330.761577819376
 31
0.0
 12
-419.2996094255608
 22
-1349.881224343972
 32
0.0
 13
-419.2996094255608
 23
-1349.881224343972
 33
0.0
  0
MTEXT
  5
26A
330
267
100
AcDbEntity
  8
1
 62
     4
100
AcDbMText
 10
-562.873032181174
 20
-1237.74546348926
 30
0.0
 40
30.0
 41
0.0
 71
     7
 72
     1
  1
\C4;\U+00f8\C4;5.5
  7
CONVERTER_13
 11
0.8509196598372547
 21
-0.5252958523560325
 31
0.0
 73
     1
 44
0.60024009603842
  0
ENDBLK
  5
26C
330
267
100
AcDbEntity
  8
0
100
AcDbBlockEnd
  0
ENDSEC
  0
SECTION
  2
ENTITIES
  0
INSERT
  5
4E
330
1F
100
AcDbEntity
  8
0
100
AcDbBlockReference
  2
A4
 10
1110.810631914869
 20
-2397.047664041242
 30
0.0
 41
1.0
 42
1.0
 43
1.0
  0
LINE
  5
A6
330
1F
100
AcDbEntity
  8
1
  6
DOT_CENTER
 62
     2
100
AcDbLine
 10
482.7703492138319
 20
-424.8027966969399
 30
0.0
 11
482.7703492138319
 21
-439.900387980087
 31
0.0
  0
LINE
  5
A7
330
1F
100
AcDbEntity
  8
0
  6
Continuous
 62
     7
100
AcDbLine
 10
452.7528968070422
 20
7.20849741708693
 30
0.0
 11
526.7703492134688
 21
8.50047685466583
 31
0.0
  0
LINE
  5
A8
330
1F
100
AcDbEntity
  8
0
  6
Continuous
 62
     7
100
AcDbLine
 10
526.7703492134725
 20
6.00047685462195
 30
0.0
 11
526.7703492134688
 21
8.50047685466583
 31
0.0
  0
LINE
  5
A9
330
1F
100
AcDbEntity
  8
0
  6
Continuous
 62
     7
100
AcDbLine
 10
526.7703492134916
 20
-392.9995231452853
 30
0.0
 11
526.7703492135804
 21
-394.8295006469768
 31
0.0
  0
LINE
  5
AA
330
1F
100
AcDbEntity
  8
0
  6
Continuous
 62
     7
100
AcDbLine
 10
526.7703492134674
 20
-392.3804654334704
 30
0.0
 11
526.7703492134916
 21
-392.9995231452853
 31
0.0
  0
LINE
  5
AB
330
1F
100
AcDbEntity
  8
0
  6
Continuous
 62
     7
100
AcDbLine
 10
526.770349213469
 20
-431.4995231453282
 30
0.0
 11
452.7528968070245
 21
-430.2075437077567
 31
0.0
  0
LINE
  5
AC
330
1F
100
AcDbEntity
  8
0
  6
Continuous
 62
     7
100
AcDbLine
 10
451.7703492134598
 20
6.20864972193064
 30
0.0
 11
451.7703492135162
 21
0.20956355099793
 31
0.0
  0
LINE
  5
AD
330
1F
100
AcDbEntity
  8
0
  6
Continuous
 62
     7
100
AcDbLine
 10
451.7703492135162
 20
0.20956355099793
 30
0.0
 11
451.770349213497
 21
-5.96521192017576
 31
0.0
  0
LINE
  5
AE
330
1F
100
AcDbEntity
  8
0
  6
Continuous
 62
     7
100
AcDbLine
 10
526.770349213469
 20
-431.4995231453282
 30
0.0
 11
526.7703492134989
 21
-428.9995231452871
 31
0.0
  0
LINE
  5
AF
330
1F
100
AcDbEntity
  8
0
  6
Continuous
 62
     7
100
AcDbLine
 10
452.7703492134665
 20
-394.9646023758597
 30
0.0
 11
452.7528968070296
 21
-394.9652118273219
 31
0.0
  0
LINE
  5
B0
330
1F
100
AcDbEntity
  8
0
  6
Continuous
 62
     7
100
AcDbLine
 10
454.2703492134615
 20
-389.9995231453257
 30
0.0
 11
454.2703492134855
 21
-197.4995231453331
 31
0.0
  0
LINE
  5
B1
330
1F
100
AcDbEntity
  8
0
  6
Continuous
 62
     7
100
AcDbLine
 10
526.7703492134674
 20
-392.3804654334704
 30
0.0
 11
452.7703492134665
 21
-394.9646023758597
 31
0.0
  0
LINE
  5
B2
330
1F
100
AcDbEntity
  8
0
  6
Continuous
 62
     7
100
AcDbLine
 10
526.7703492134989
 20
-428.9995231452871
 30
0.0
 11
527.2703492134962
 21
-428.9995231452871
 31
0.0
  0
LINE
  5
B3
330
1F
100
AcDbEntity
  8
0
  6
Continuous
 62
     7
100
AcDbLine
 10
452.7528968070526
 20
-28.03383446333027
 30
0.0
 11
452.7354497167872
 21
-28.03322519751947
 31
0.0
  0
LINE
  5
B4
330
1F
100
AcDbEntity
  8
0
  6
Continuous
 62
     7
100
AcDbLine
 10
451.77034921349
 20
-28.49952319645885
 30
0.0
 11
451.7703492135154
 21
-30.99952314901756
 31
0.0
  0
LINE
  5
B5
330
1F
100
AcDbEntity
  8
0
  6
Continuous
 62
     7
100
AcDbLine
 10
452.7528968070533
 20
-4.96521182733926
 30
0.0
 11
452.7354497167891
 21
-4.96582109318675
 31
0.0
  0
LINE
  5
B6
330
1F
100
AcDbEntity
  8
0
  6
Continuous
 62
     7
100
AcDbLine
 10
451.7703492134837
 20
-194.4995233111706
 30
0.0
 11
451.7703492135372
 21
-157.499522979488
 31
0.0
  0
LINE
  5
B7
330
1F
100
AcDbEntity
  8
0
  6
Continuous
 62
     7
100
AcDbLine
 10
451.7703492135372
 20
-157.499522979488
 30
0.0
 11
451.7703492135579
 21
-156.4995232089802
 31
0.0
  0
LINE
  5
B8
330
1F
100
AcDbEntity
  8
0
  6
Continuous
 62
     7
100
AcDbLine
 10
451.7703492135167
 20
-395.9652119201464
 30
0.0
 11
451.7703492134671
 21
-394.4995230941995
 31
0.0
  0
LINE
  5
B9
330
1F
100
AcDbEntity
  8
0
  6
Continuous
 62
     7
100
AcDbLine
 10
451.7703492134675
 20
-417.0338343704892
 30
0.0
 11
451.7703492135167
 21
-395.9652119201464
 31
0.0
  0
LINE
  5
BA
330
1F
100
AcDbEntity
  8
0
  6
Continuous
 62
     7
100
AcDbLine
 10
451.7703492134671
 20
-394.4995230941995
 30
0.0
 11
451.7703492134687
 21
-391.999523133411
 31
0.0
  0
LINE
  5
BB
330
1F
100
AcDbEntity
  8
0
  6
Continuous
 62
     7
100
AcDbLine
 10
451.7703492134837
 20
-194.4995233111706
 30
0.0
 11
451.7703492135372
 21
-195.4995230456937
 31
0.0
  0
LINE
  5
BC
330
1F
100
AcDbEntity
  8
0
  6
Continuous
 62
     7
100
AcDbLine
 10
451.7703492134679
 20
-423.2086098039518
 30
0.0
 11
451.7703492135806
 21
-429.2076960160807
 31
0.0
  0
LINE
  5
BD
330
1F
100
AcDbEntity
  8
0
  6
Continuous
 62
     7
100
AcDbLine
 10
453.2703492134834
 20
-390.9995231453257
 30
0.0
 11
452.7703492134638
 21
-390.9995231453257
 31
0.0
  0
LINE
  5
BE
330
1F
100
AcDbEntity
  8
0
  6
Continuous
 62
     7
100
AcDbLine
 10
528.2703492135573
 20
-392.9995231452853
 30
0.0
 11
528.2703492134928
 21
-214.9995231452409
 31
0.0
  0
LINE
  5
BF
330
1F
100
AcDbEntity
  8
0
  6
Continuous
 62
     7
100
AcDbLine
 10
528.2703492134928
 20
-214.9995231452409
 30
0.0
 11
528.2703492135573
 21
-210.4995231452392
 31
0.0
  0
LINE
  5
C0
330
1F
100
AcDbEntity
  8
0
  6
Continuous
 62
     7
100
AcDbLine
 10
528.2703492134935
 20
-397.4995231452841
 30
0.0
 11
528.2703492135573
 21
-392.9995231452853
 31
0.0
  0
LINE
  5
C1
330
1F
100
AcDbEntity
  8
0
  6
Continuous
 62
     7
100
AcDbLine
 10
528.2703492134962
 20
-427.999523145287
 30
0.0
 11
528.2703492134935
 21
-397.4995231452841
 31
0.0
  0
LINE
  5
C2
330
1F
100
AcDbEntity
  8
0
  6
Continuous
 62
     7
100
AcDbLine
 10
451.77034921349
 20
-28.49952319645885
 30
0.0
 11
451.7703492134963
 21
-27.03383437050056
 31
0.0
  0
LINE
  5
C3
330
1F
100
AcDbEntity
  8
0
  6
Continuous
 62
     7
100
AcDbLine
 10
451.7703492134963
 20
-27.03383437050056
 30
0.0
 11
451.770349213497
 21
-5.96521192017576
 31
0.0
  0
LINE
  5
C4
330
1F
100
AcDbEntity
  8
0
  6
Continuous
 62
     7
100
AcDbLine
 10
451.7703492134679
 20
-423.2086098039518
 30
0.0
 11
451.7703492134675
 21
-417.0338343704892
 31
0.0
  0
LINE
  5
C5
330
1F
100
AcDbEntity
  8
0
  6
Continuous
 62
     7
100
AcDbLine
 10
452.7703492134672
 20
-418.034443914788
 30
0.0
 11
452.7528968070303
 21
-418.0338344633257
 31
0.0
  0
LINE
  5
C6
330
1F
100
AcDbEntity
  8
0
  6
Continuous
 62
     7
100
AcDbLine
 10
452.7528968070303
 20
-418.0338344633257
 30
0.0
 11
452.7354497168149
 21
-418.0332251974953
 31
0.0
  0
LINE
  5
C7
330
1F
100
AcDbEntity
  8
0
  6
Continuous
 62
     7
100
AcDbLine
 10
526.7703492134583
 20
-420.618580857177
 30
0.0
 11
452.7703492134672
 21
-418.034443914788
 31
0.0
  0
LINE
  5
C8
330
1F
100
AcDbEntity
  8
0
  6
Continuous
 62
     7
100
AcDbLine
 10
526.7703492134583
 20
-420.618580857177
 30
0.0
 11
526.7703492134942
 21
-424.4995231452882
 31
0.0
  0
LINE
  5
C9
330
1F
100
AcDbEntity
  8
0
  6
Continuous
 62
     7
100
AcDbLine
 10
526.7703492134942
 20
-424.4995231452882
 30
0.0
 11
526.7703492134594
 21
-424.5005892792335
 31
0.0
  0
LINE
  5
CA
330
1F
100
AcDbEntity
  8
0
  6
Continuous
 62
     7
100
AcDbLine
 10
526.7703492134583
 20
-420.618580857177
 30
0.0
 11
526.7703492134583
 21
-418.1695456436653
 31
0.0
  0
LINE
  5
CB
330
1F
100
AcDbEntity
  8
0
  6
Continuous
 62
     7
100
AcDbLine
 10
460.2616230103121
 20
-413.5080983613277
 30
0.0
 11
526.7703492135879
 21
-414.6690124955112
 31
0.0
  0
LINE
  5
CC
330
1F
100
AcDbEntity
  8
0
  6
Continuous
 62
     7
100
AcDbLine
 10
526.7703492134583
 20
-418.1695456436653
 30
0.0
 11
526.7703492135879
 21
-414.6690124955112
 31
0.0
  0
LINE
  5
CD
330
1F
100
AcDbEntity
  8
0
  6
Continuous
 62
     7
100
AcDbLine
 10
526.7703492134989
 20
-428.9995231452871
 30
0.0
 11
526.7703492134594
 21
-424.5005892792335
 31
0.0
  0
LINE
  5
CE
330
1F
100
AcDbEntity
  8
0
  6
Continuous
 62
     7
100
AcDbLine
 10
526.7703492135879
 20
-414.6690124955112
 30
0.0
 11
526.7703492134942
 21
-405.4995231452815
 31
0.0
  0
LINE
  5
CF
330
1F
100
AcDbEntity
  8
0
  6
Continuous
 62
     7
100
AcDbLine
 10
459.7703492135307
 20
-413.0081745137495
 30
0.0
 11
459.7703492135307
 21
-399.9908717768785
 31
0.0
  0
LINE
  5
D0
330
1F
100
AcDbEntity
  8
0
  6
Continuous
 62
     7
100
AcDbLine
 10
526.7703492134942
 20
-405.4995231452815
 30
0.0
 11
526.7703492134682
 21
-398.3300337951303
 31
0.0
  0
LINE
  5
D1
330
1F
100
AcDbEntity
  8
0
  6
Continuous
 62
     7
100
AcDbLine
 10
460.2616230102354
 20
-399.4909479293007
 30
0.0
 11
526.7703492134682
 21
-398.3300337951303
 31
0.0
  0
LINE
  5
D2
330
1F
100
AcDbEntity
  8
0
  6
Continuous
 62
     7
100
AcDbLine
 10
526.7703492134682
 20
-398.3300337951303
 30
0.0
 11
526.7703492135804
 21
-394.8295006469768
 31
0.0
  0
LINE
  5
D3
330
1F
100
AcDbEntity
  8
0
  6
Continuous
 62
     7
100
AcDbLine
 10
527.2703492135133
 20
6.00047685462195
 30
0.0
 11
526.7703492134725
 21
6.00047685462195
 31
0.0
  0
LINE
  5
D4
330
1F
100
AcDbEntity
  8
0
  6
Continuous
 62
     7
100
AcDbLine
 10
453.2703492134991
 20
-31.99952314533277
 30
0.0
 11
452.7703492134863
 21
-31.99952314533277
 31
0.0
  0
LINE
  5
D5
330
1F
100
AcDbEntity
  8
0
  6
Continuous
 62
     7
100
AcDbLine
 10
526.7703492134674
 20
1.50154298857103
 30
0.0
 11
526.7703492134715
 21
1.50047685462204
 31
0.0
  0
LINE
  5
D6
330
1F
100
AcDbEntity
  8
0
  6
Continuous
 62
     7
100
AcDbLine
 10
528.2703492134726
 20
1.50047685462204
 30
0.0
 11
528.2703492135133
 21
5.00047685461024
 31
0.0
  0
LINE
  5
D7
330
1F
100
AcDbEntity
  8
0
  6
Continuous
 62
     7
100
AcDbLine
 10
526.7703492134949
 20
-8.33003379514597
 30
0.0
 11
526.7703492134715
 21
-17.49952314535986
 31
0.0
  0
LINE
  5
D8
330
1F
100
AcDbEntity
  8
0
  6
Continuous
 62
     7
100
AcDbLine
 10
526.7703492134674
 20
-2.38046543348847
 30
0.0
 11
526.7703492134674
 21
-4.82950064699307
 31
0.0
  0
LINE
  5
D9
330
1F
100
AcDbEntity
  8
0
  6
Continuous
 62
     7
100
AcDbLine
 10
526.7703492134949
 20
-8.33003379514597
 30
0.0
 11
460.2616230102839
 21
-9.49094792932416
 31
0.0
  0
LINE
  5
DA
330
1F
100
AcDbEntity
  8
0
  6
Continuous
 62
     7
100
AcDbLine
 10
526.7703492134715
 20
-17.49952314535986
 30
0.0
 11
526.7703492134949
 21
-24.66901249552996
 31
0.0
  0
LINE
  5
DB
330
1F
100
AcDbEntity
  8
0
  6
Continuous
 62
     7
100
AcDbLine
 10
526.7703492134949
 20
-8.33003379514597
 30
0.0
 11
526.7703492134674
 21
-4.82950064699307
 31
0.0
  0
LINE
  5
DC
330
1F
100
AcDbEntity
  8
0
  6
Continuous
 62
     7
100
AcDbLine
 10
460.2616230102572
 20
-23.50809836135855
 30
0.0
 11
526.7703492134949
 21
-24.66901249552996
 31
0.0
  0
LINE
  5
DD
330
1F
100
AcDbEntity
  8
0
  6
Continuous
 62
     7
100
AcDbLine
 10
526.7703492134674
 20
-30.61858085718106
 30
0.0
 11
526.770349213469
 21
-25.49952314535966
 31
0.0
  0
LINE
  5
DE
330
1F
100
AcDbEntity
  8
0
  6
Continuous
 62
     7
100
AcDbLine
 10
526.770349213469
 20
-25.49952314535966
 30
0.0
 11
526.7703492134949
 21
-24.66901249552996
 31
0.0
  0
LINE
  5
DF
330
1F
100
AcDbEntity
  8
0
  6
Continuous
 62
     7
100
AcDbLine
 10
528.2703492134726
 20
1.50047685462204
 30
0.0
 11
528.2703492135236
 21
-17.49952314535986
 31
0.0
  0
LINE
  5
E0
330
1F
100
AcDbEntity
  8
0
  6
Continuous
 62
     7
100
AcDbLine
 10
526.7703492134715
 20
1.50047685462204
 30
0.0
 11
526.7703492134674
 21
-2.38046543348847
 31
0.0
  0
LINE
  5
E1
330
1F
100
AcDbEntity
  8
0
  6
Continuous
 62
     7
100
AcDbLine
 10
528.2703492134691
 20
-29.99952314535966
 30
0.0
 11
528.2703492135231
 21
-25.49952314535966
 31
0.0
  0
LINE
  5
E2
330
1F
100
AcDbEntity
  8
0
  6
Continuous
 62
     7
100
AcDbLine
 10
528.2703492135236
 20
-17.49952314535986
 30
0.0
 11
528.2703492135231
 21
-25.49952314535966
 31
0.0
  0
LINE
  5
E3
330
1F
100
AcDbEntity
  8
0
  6
Continuous
 62
     7
100
AcDbLine
 10
528.2703492135236
 20
-141.4995231453039
 30
0.0
 11
528.2703492134691
 21
-29.99952314535966
 31
0.0
  0
LINE
  5
E4
330
1F
100
AcDbEntity
  8
0
  6
Continuous
 62
     7
100
AcDbLine
 10
528.2703492134726
 20
-149.499523145304
 30
0.0
 11
528.2703492135236
 21
-141.4995231453039
 31
0.0
  0
LINE
  5
E5
330
1F
100
AcDbEntity
  8
0
  6
Continuous
 62
     7
100
AcDbLine
 10
526.7703492134725
 20
-172.9995231453314
 30
0.0
 11
527.2703492134738
 21
-172.9995231453314
 31
0.0
  0
LINE
  5
E6
330
1F
100
AcDbEntity
  8
0
  6
Continuous
 62
     7
100
AcDbLine
 10
528.2703492134726
 20
-149.499523145304
 30
0.0
 11
528.2703492134738
 21
-171.9995231453313
 31
0.0
  0
LINE
  5
E7
330
1F
100
AcDbEntity
  8
0
  6
Continuous
 62
     7
100
AcDbLine
 10
527.2703492135437
 20
-178.9995231453273
 30
0.0
 11
526.7703492134989
 21
-178.9995231453273
 31
0.0
  0
LINE
  5
E8
330
1F
100
AcDbEntity
  8
0
  6
Continuous
 62
     7
100
AcDbLine
 10
528.2703492134955
 20
-183.4995231453285
 30
0.0
 11
528.2703492135437
 21
-179.999523145341
 31
0.0
  0
LINE
  5
E9
330
1F
100
AcDbEntity
  8
0
  6
Continuous
 62
     7
100
AcDbLine
 10
528.2703492135573
 20
-202.4995231452371
 30
0.0
 11
528.2703492134955
 21
-183.4995231453285
 31
0.0
  0
LINE
  5
EA
330
1F
100
AcDbEntity
  8
0
  6
Continuous
 62
     7
100
AcDbLine
 10
526.7703492134989
 20
-178.9995231453273
 30
0.0
 11
526.7703492134674
 21
-392.3804654334704
 31
0.0
  0
LINE
  5
EB
330
1F
100
AcDbEntity
  8
0
  6
Continuous
 62
     7
100
AcDbLine
 10
528.2703492135573
 20
-210.4995231452392
 30
0.0
 11
528.2703492135573
 21
-202.4995231452371
 31
0.0
  0
LINE
  5
EC
330
1F
100
AcDbEntity
  8
0
  6
Continuous
 62
     7
100
AcDbLine
 10
454.2703492134459
 20
-154.6836800809005
 30
0.0
 11
454.2703492134855
 21
-154.4995231453256
 31
0.0
  0
LINE
  5
ED
330
1F
100
AcDbEntity
  8
0
  6
Continuous
 62
     7
100
AcDbLine
 10
454.2703492134855
 20
-154.4995231453256
 30
0.0
 11
454.2703492135088
 21
-136.4995231453464
 31
0.0
  0
LINE
  5
EE
330
1F
100
AcDbEntity
  8
0
  6
Continuous
 62
     7
100
AcDbLine
 10
526.7703492134725
 20
-172.9995231453314
 30
0.0
 11
526.7703492134989
 21
-178.9995231453273
 31
0.0
  0
LINE
  5
EF
330
1F
100
AcDbEntity
  8
0
  6
Continuous
 62
     7
100
AcDbLine
 10
526.7703492134725
 20
-172.9995231453314
 30
0.0
 11
526.7703492134674
 21
-30.61858085718106
 31
0.0
  0
LINE
  5
F0
330
1F
100
AcDbEntity
  8
0
  6
Continuous
 62
     7
100
AcDbLine
 10
459.7703492135026
 20
-9.99087177690237
 30
0.0
 11
459.7703492135026
 21
-23.00817451378035
 31
0.0
  0
LINE
  5
F1
330
1F
100
AcDbEntity
  8
0
  6
Continuous
 62
     7
100
AcDbLine
 10
454.2703492134985
 20
-32.99952314533277
 30
0.0
 11
454.2703492135088
 21
-136.4995231453464
 31
0.0
  0
LINE
  5
F2
330
1F
100
AcDbEntity
  8
0
  6
Continuous
 62
     7
100
AcDbLine
 10
453.270349213497
 20
-155.4995231453256
 30
0.0
 11
452.7703492134748
 21
-155.4995231453256
 31
0.0
  0
LINE
  5
F3
330
1F
100
AcDbEntity
  8
0
  6
Continuous
 62
     7
100
AcDbLine
 10
452.7703492135349
 20
-28.03444391479255
 30
0.0
 11
526.7703492134674
 21
-30.61858085718106
 31
0.0
  0
LINE
  5
F4
330
1F
100
AcDbEntity
  8
0
  6
Continuous
 62
     7
100
AcDbLine
 10
526.7703492134674
 20
1.50154298857103
 30
0.0
 11
526.7703492134725
 21
6.00047685462195
 31
0.0
  0
LINE
  5
F5
330
1F
100
AcDbEntity
  8
0
  6
Continuous
 62
     7
100
AcDbLine
 10
453.2703492134988
 20
-196.4995231453331
 30
0.0
 11
452.770349213497
 21
-196.4995231453331
 31
0.0
  0
LINE
  5
F6
330
1F
100
AcDbEntity
  8
0
  6
Continuous
 62
     7
100
AcDbLine
 10
526.7703492134674
 20
-2.38046543348847
 30
0.0
 11
452.7528968070533
 21
-4.96521182733926
 31
0.0
  0
LINE
  5
F7
330
1F
100
AcDbEntity
  8
0
  6
Continuous
 62
     7
100
AcDbLine
 10
452.7703492135349
 20
-28.03444391479255
 30
0.0
 11
452.7528968070526
 21
-28.03383446333027
 31
0.0
  0
LINE
  5
F8
330
1F
100
AcDbEntity
  8
0
  6
Continuous
 62
     7
100
AcDbLine
 10
452.7528968070296
 20
-394.9652118273219
 30
0.0
 11
452.7354497167634
 21
-394.9658210931161
 31
0.0
  0
LINE
  5
F9
330
1F
100
AcDbEntity
  8
0
  6
DASHED
 62
     7
100
AcDbLine
 10
-86.30212634394604
 20
-961.2995231453413
 30
0.0
 11
-86.30212634394593
 21
-963.2995231453413
 31
0.0
  0
LINE
  5
FA
330
1F
100
AcDbEntity
  8
0
  6
DASHED
 62
     7
100
AcDbLine
 10
-91.70212634394585
 20
-963.2995231453415
 30
0.0
 11
-91.70212634394593
 21
-961.2995231453415
 31
0.0
  0
LINE
  5
FB
330
1F
100
AcDbEntity
  8
0
  6
DASHED
 62
     7
100
AcDbLine
 10
-90.00212634396854
 20
-1349.599523145331
 30
0.0
 11
-88.00212634396854
 21
-1349.599523145331
 31
0.0
  0
LINE
  5
FC
330
1F
100
AcDbEntity
  8
0
  6
DASHED
 62
     7
100
AcDbLine
 10
-90.00212634396883
 20
-1354.999523145331
 30
0.0
 11
-88.00212634396883
 21
-1354.999523145331
 31
0.0
  0
LINE
  5
FD
330
1F
100
AcDbEntity
  8
0
  6
DASHED
 62
     7
100
AcDbLine
 10
-80.50212634396365
 20
-1370.300589279242
 30
0.0
 11
-80.50212634396024
 21
-1363.969545643674
 31
0.0
  0
LINE
  5
FE
330
1F
100
AcDbEntity
  8
0
  6
DASHED
 62
     7
100
AcDbLine
 10
-80.50212634396405
 20
-1362.79132876102
 30
0.0
 11
-80.50212634396283
 21
-1341.80771752964
 31
0.0
  0
LINE
  5
FF
330
1F
100
AcDbEntity
  8
0
  6
DASHED
 62
     7
100
AcDbLine
 10
-80.50212634396405
 20
-1362.79132876102
 30
0.0
 11
-80.50212634396024
 21
-1363.969545643674
 31
0.0
  0
LINE
  5
100
330
1F
100
AcDbEntity
  8
0
  6
DASHED
 62
     7
100
AcDbLine
 10
-80.50212634396283
 20
-1341.80771752964
 30
0.0
 11
-80.50212634395905
 21
-1340.629500646986
 31
0.0
  0
LINE
  5
101
330
1F
100
AcDbEntity
  8
0
  6
DASHED
 62
     7
100
AcDbLine
 10
-414.3021263440002
 20
-1351.299523145333
 30
0.0
 11
-414.3021263440002
 21
-1353.299523145333
 31
0.0
  0
LINE
  5
102
330
1F
100
AcDbEntity
  8
0
  6
DASHED
 62
     7
100
AcDbLine
 10
-419.7021263440002
 20
-1351.299523145334
 30
0.0
 11
-419.7021263440001
 21
-1353.299523145334
 31
0.0
  0
LINE
  5
103
330
1F
100
AcDbEntity
  8
0
  6
DASHED
 62
     7
100
AcDbLine
 10
-425.5021263439507
 20
-950.6295006469782
 30
0.0
 11
-425.5021263439505
 21
-944.298457011447
 31
0.0
  0
LINE
  5
104
330
1F
100
AcDbEntity
  8
0
  6
DASHED
 62
     7
100
AcDbLine
 10
-416.0021263439581
 20
-959.5995231453455
 30
0.0
 11
-418.0021263439581
 21
-959.5995231453455
 31
0.0
  0
LINE
  5
105
330
1F
100
AcDbEntity
  8
0
  6
DASHED
 62
     7
100
AcDbLine
 10
-425.5021263439507
 20
-950.6295006469782
 30
0.0
 11
-425.5021263439588
 21
-951.8077175296562
 31
0.0
  0
LINE
  5
106
330
1F
100
AcDbEntity
  8
0
  6
DASHED
 62
     7
100
AcDbLine
 10
-425.5021263439588
 20
-951.8077175296562
 30
0.0
 11
-425.50212634396
 21
-972.7913287610368
 31
0.0
  0
LINE
  5
107
330
1F
100
AcDbEntity
  8
0
  6
DASHED
 62
     7
100
AcDbLine
 10
-418.0021263439585
 20
-964.9995231453454
 30
0.0
 11
-416.0021263439585
 21
-964.9995231453456
 31
0.0
  0
LINE
  5
108
330
1F
100
AcDbEntity
  8
0
  6
DASHED
 62
     7
100
AcDbLine
 10
-425.50212634396
 20
-972.7913287610368
 30
0.0
 11
-425.502126343952
 21
-973.969545643715
 31
0.0
  0
LINE
  5
109
330
1F
100
AcDbEntity
  8
0
  6
DASHED
 62
     7
100
AcDbLine
 10
-425.5021263440149
 20
-1340.129500646986
 30
0.0
 11
-425.502126343952
 21
-973.969545643715
 31
0.0
  0
LINE
  5
10A
330
1F
100
AcDbEntity
  8
0
  6
DASHED
 62
     7
100
AcDbLine
 10
-425.5021263440135
 20
-1363.969545643663
 30
0.0
 11
-425.5021263440102
 21
-1370.300589279242
 31
0.0
  0
LINE
  5
10B
330
1F
100
AcDbEntity
  8
0
  6
DASHED
 62
     7
100
AcDbLine
 10
-425.5021263440098
 20
-1362.79132876102
 30
0.0
 11
-425.5021263440135
 21
-1363.969545643663
 31
0.0
  0
LINE
  5
10C
330
1F
100
AcDbEntity
  8
0
  6
DASHED
 62
     7
100
AcDbLine
 10
-425.5021263440098
 20
-1362.79132876102
 30
0.0
 11
-425.5021263440109
 21
-1341.80771752964
 31
0.0
  0
LINE
  5
10D
330
1F
100
AcDbEntity
  8
0
  6
DASHED
 62
     7
100
AcDbLine
 10
-80.50212634393745
 20
-973.9695456436918
 30
0.0
 11
-80.50212634395905
 21
-1340.629500646986
 31
0.0
  0
LINE
  5
10E
330
1F
100
AcDbEntity
  8
0
  6
DASHED
 62
     7
100
AcDbLine
 10
-80.50212634393833
 20
-951.7909479293257
 30
0.0
 11
-80.50212634393904
 21
-944.2984570114284
 31
0.0
  0
LINE
  5
10F
330
1F
100
AcDbEntity
  8
0
  6
DASHED
 62
     7
100
AcDbLine
 10
-80.50212634393745
 20
-973.9695456436918
 30
0.0
 11
-80.50212634393833
 21
-951.8077175296567
 31
0.0
  0
LINE
  5
110
330
1F
100
AcDbEntity
  8
0
  6
DASHED
 62
     7
100
AcDbLine
 10
-418.5031924778563
 20
-937.2995231453522
 30
0.0
 11
-87.50106021003418
 21
-937.2995231453338
 31
0.0
  0
LINE
  5
111
330
1F
100
AcDbEntity
  8
0
  6
DASHED
 62
     7
100
AcDbLine
 10
-87.50106021005894
 20
-1377.299523145337
 30
0.0
 11
-418.5031924779148
 21
-1377.299523145337
 31
0.0
  0
LINE
  5
112
330
1F
100
AcDbEntity
  8
1
  6
DOT_CENTER
 62
     2
100
AcDbLine
 10
-89.00212634394603
 20
-955.5121578566811
 30
0.0
 11
-89.00212634394603
 21
-968.912157856681
 31
0.0
  0
LINE
  5
113
330
1F
100
AcDbEntity
  8
1
  6
DOT_CENTER
 62
     2
100
AcDbLine
 10
-94.06044632677214
 20
-962.2995231453456
 30
0.0
 11
-83.76044632677213
 21
-962.2995231453456
 31
0.0
  0
LINE
  5
114
330
1F
100
AcDbEntity
  8
1
  6
DOT_CENTER
 62
     2
100
AcDbLine
 10
-422.0604463267844
 20
-962.2995231453456
 30
0.0
 11
-411.7604463267844
 21
-962.2995231453456
 31
0.0
  0
LINE
  5
115
330
1F
100
AcDbEntity
  8
1
  6
DOT_CENTER
 62
     2
100
AcDbLine
 10
-417.0021263439583
 20
-955.5121578566811
 30
0.0
 11
-417.0021263439583
 21
-968.912157856681
 31
0.0
  0
LINE
  5
116
330
1F
100
AcDbEntity
  8
1
  6
DOT_CENTER
 62
     2
100
AcDbLine
 10
-422.0604463267844
 20
-1352.299523145333
 30
0.0
 11
-411.7604463267844
 21
-1352.299523145333
 31
0.0
  0
LINE
  5
117
330
1F
100
AcDbEntity
  8
1
  6
DOT_CENTER
 62
     2
100
AcDbLine
 10
-417.0021263439583
 20
-1345.512157856669
 30
0.0
 11
-417.0021263439583
 21
-1358.912157856669
 31
0.0
  0
LINE
  5
118
330
1F
100
AcDbEntity
  8
1
  6
DOT_CENTER
 62
     2
100
AcDbLine
 10
-94.06044632677214
 20
-1352.299523145333
 30
0.0
 11
-83.76044632677213
 21
-1352.299523145333
 31
0.0
  0
LINE
  5
119
330
1F
100
AcDbEntity
  8
1
  6
DOT_CENTER
 62
     2
100
AcDbLine
 10
-89.00212634394603
 20
-1345.512157856669
 30
0.0
 11
-89.00212634394603
 21
-1358.912157856669
 31
0.0
  0
LINE
  5
11A
330
1F
100
AcDbEntity
  8
0
  6
Continuous
 62
     7
100
AcDbLine
 10
-277.8512402454798
 20
-178.9995231453273
 30
0.0
 11
-287.5021263440902
 21
-178.9995231453273
 31
0.0
  0
LINE
  5
11B
330
1F
100
AcDbEntity
  8
0
  6
Continuous
 62
     7
100
AcDbLine
 10
-277.9192542755792
 20
-172.9995231453312
 30
0.0
 11
-403.0021263438788
 21
-172.9995231453314
 31
0.0
  0
LINE
  5
11C
330
1F
100
AcDbEntity
  8
0
  6
Continuous
 62
     7
100
AcDbLine
 10
-87.50106021006351
 20
-431.4995231453282
 30
0.0
 11
-418.503192477882
 21
-431.4995231453282
 31
0.0
  0
LINE
  5
11D
330
1F
100
AcDbEntity
  8
0
  6
Continuous
 62
     7
100
AcDbLine
 10
-418.5031924778235
 20
8.50047685465654
 30
0.0
 11
-87.50106021003873
 21
8.50047685467533
 31
0.0
  0
LINE
  5
11E
330
1F
100
AcDbEntity
  8
0
  6
Continuous
 62
     7
100
AcDbLine
 10
-289.7521263439594
 20
6.00047685462835
 30
0.0
 11
-103.0021263439887
 21
6.00047685463875
 31
0.0
  0
LINE
  5
11F
330
1F
100
AcDbEntity
  8
0
  6
Continuous
 62
     7
100
AcDbLine
 10
-80.50212634394171
 20
-26.99132876102735
 30
0.0
 11
-80.50212634394293
 21
-6.00771752964795
 31
0.0
  0
LINE
  5
120
330
1F
100
AcDbEntity
  8
0
  6
Continuous
 62
     7
100
AcDbLine
 10
-80.50212634394202
 20
-28.16954564368297
 30
0.0
 11
-80.50212634394171
 21
-26.99132876102735
 31
0.0
  0
LINE
  5
121
330
1F
100
AcDbEntity
  8
0
  6
Continuous
 62
     7
100
AcDbLine
 10
-80.50212634394293
 20
-5.99094792931655
 30
0.0
 11
-80.50212634394333
 21
-4.82950064699196
 31
0.0
  0
LINE
  5
122
330
1F
100
AcDbEntity
  8
0
  6
Continuous
 62
     7
100
AcDbLine
 10
-80.50212634394362
 20
1.50154298858055
 30
0.0
 11
-80.50212634394333
 21
-4.82950064699196
 31
0.0
  0
LINE
  5
123
330
1F
100
AcDbEntity
  8
0
  6
Continuous
 62
     7
100
AcDbLine
 10
-80.50212634394202
 20
-28.16954564368297
 30
0.0
 11
-80.50212634396362
 21
-394.8295006469768
 31
0.0
  0
LINE
  5
124
330
1F
100
AcDbEntity
  8
0
  6
Continuous
 62
     7
100
AcDbLine
 10
-334.0021263439049
 20
-178.9995231453273
 30
0.0
 11
-403.0021263439367
 21
-178.9995231453273
 31
0.0
  0
LINE
  5
125
330
1F
100
AcDbEntity
  8
0
  6
Continuous
 62
     7
100
AcDbLine
 10
-407.5021263439315
 20
-405.4995231452988
 30
0.0
 11
-407.502126343931
 21
-424.4995231452911
 31
0.0
  0
LINE
  5
126
330
1F
100
AcDbEntity
  8
0
  6
Continuous
 62
     7
100
AcDbLine
 10
-407.5021263439368
 20
-183.4995231453276
 30
0.0
 11
-407.5021263439363
 21
-202.4995231452546
 31
0.0
  0
LINE
  5
127
330
1F
100
AcDbEntity
  8
0
  6
Continuous
 62
     7
100
AcDbLine
 10
-425.502126343977
 20
-416.9913287610108
 30
0.0
 11
-425.5021263439781
 21
-396.0077175296314
 31
0.0
  0
LINE
  5
128
330
1F
100
AcDbEntity
  8
0
  6
Continuous
 62
     7
100
AcDbLine
 10
-425.502126343977
 20
-416.9913287610108
 30
0.0
 11
-425.5021263439807
 21
-418.1695456436542
 31
0.0
  0
LINE
  5
129
330
1F
100
AcDbEntity
  8
0
  6
Continuous
 62
     7
100
AcDbLine
 10
-425.5021263439807
 20
-418.1695456436542
 30
0.0
 11
-425.5021263439774
 21
-424.5005892792334
 31
0.0
  0
LINE
  5
12A
330
1F
100
AcDbEntity
  8
0
  6
Continuous
 62
     7
100
AcDbLine
 10
-425.5021263439781
 20
-396.0077175296314
 30
0.0
 11
-425.502126343982
 21
-394.8295006469768
 31
0.0
  0
LINE
  5
12B
330
1F
100
AcDbEntity
  8
0
  6
Continuous
 62
     7
100
AcDbLine
 10
-417.0021263439685
 20
-398.3300337951304
 30
0.0
 11
-422.002126343982
 21
-398.3300337951301
 31
0.0
  0
LINE
  5
12C
330
1F
100
AcDbEntity
  8
0
  6
Continuous
 62
     7
100
AcDbLine
 10
-423.0021263439392
 20
-214.9995231452549
 30
0.0
 11
-423.0021263439392
 21
-392.999523145299
 31
0.0
  0
LINE
  5
12D
330
1F
100
AcDbEntity
  8
0
  6
Continuous
 62
     7
100
AcDbLine
 10
-415.5021263439363
 20
-210.4995231452549
 30
0.0
 11
-418.5021263439392
 21
-210.4995231452549
 31
0.0
  0
LINE
  5
12E
330
1F
100
AcDbEntity
  8
0
  6
Continuous
 62
     7
100
AcDbLine
 10
-418.5021263439392
 20
-397.499523145299
 30
0.0
 11
-415.5021263439315
 21
-397.499523145299
 31
0.0
  0
LINE
  5
12F
330
1F
100
AcDbEntity
  8
0
  6
Continuous
 62
     7
100
AcDbLine
 10
-329.5021263439098
 20
-202.4995231452371
 30
0.0
 11
-329.5021263439049
 21
-183.4995231453285
 31
0.0
  0
LINE
  5
130
330
1F
100
AcDbEntity
  8
0
  6
Continuous
 62
     7
100
AcDbLine
 10
-329.502126343966
 20
-424.4995231452882
 30
0.0
 11
-329.5021263439612
 21
-405.4995231452815
 31
0.0
  0
LINE
  5
131
330
1F
100
AcDbEntity
  8
0
  6
Continuous
 62
     7
100
AcDbLine
 10
-425.502126343982
 20
-394.8295006469768
 30
0.0
 11
-425.5021263439192
 21
-28.16954564370616
 31
0.0
  0
LINE
  5
132
330
1F
100
AcDbEntity
  8
0
  6
Continuous
 62
     7
100
AcDbLine
 10
-423.0021263438812
 20
-29.99952314535966
 30
0.0
 11
-423.0021263438812
 21
-136.9995231453039
 31
0.0
  0
LINE
  5
133
330
1F
100
AcDbEntity
  8
0
  6
Continuous
 62
     7
100
AcDbLine
 10
-421.5021263438846
 20
-136.9453133581726
 30
0.0
 11
-421.5021263438844
 21
-136.9976945124101
 31
0.0
  0
LINE
  5
134
330
1F
100
AcDbEntity
  8
0
  6
Continuous
 62
     7
100
AcDbLine
 10
-418.5021263438812
 20
-141.4995231453039
 30
0.0
 11
-415.5021263438784
 21
-141.4995231453039
 31
0.0
  0
LINE
  5
135
330
1F
100
AcDbEntity
  8
0
  6
Continuous
 62
     7
100
AcDbLine
 10
-407.5021263438784
 20
-149.499523145304
 30
0.0
 11
-407.502126343879
 21
-168.4995231453312
 31
0.0
  0
LINE
  5
136
330
1F
100
AcDbEntity
  8
0
  6
Continuous
 62
     7
100
AcDbLine
 10
-425.5021263439272
 20
-26.99132876102786
 30
0.0
 11
-425.5021263439192
 21
-28.16954564370616
 31
0.0
  0
LINE
  5
137
330
1F
100
AcDbEntity
  8
0
  6
Continuous
 62
     7
100
AcDbLine
 10
-415.5021263438735
 20
-25.49952314535966
 30
0.0
 11
-418.5021263438812
 21
-25.49952314535966
 31
0.0
  0
LINE
  5
138
330
1F
100
AcDbEntity
  8
0
  6
Continuous
 62
     7
100
AcDbLine
 10
-403.0021263439307
 20
-428.9995231452909
 30
0.0
 11
-334.0021263439658
 21
-428.9995231452871
 31
0.0
  0
LINE
  5
139
330
1F
100
AcDbEntity
  8
0
  6
Continuous
 62
     7
100
AcDbLine
 10
-418.0021263439257
 20
-19.19952314533646
 30
0.0
 11
-416.0021263439257
 21
-19.19952314533677
 31
0.0
  0
LINE
  5
13A
330
1F
100
AcDbEntity
  8
0
  6
Continuous
 62
     7
100
AcDbLine
 10
-425.502126343926
 20
-6.00771752964727
 30
0.0
 11
-425.5021263439272
 21
-26.99132876102786
 31
0.0
  0
LINE
  5
13B
330
1F
100
AcDbEntity
  8
0
  6
Continuous
 62
     7
100
AcDbLine
 10
-425.502126343918
 20
-4.82950064696925
 30
0.0
 11
-425.502126343926
 21
-6.00771752964727
 31
0.0
  0
LINE
  5
13C
330
1F
100
AcDbEntity
  8
0
  6
Continuous
 62
     7
100
AcDbLine
 10
-422.0021263439181
 20
-8.33003379514696
 30
0.0
 11
-417.0021263438975
 21
-8.33003379514605
 31
0.0
  0
LINE
  5
13D
330
1F
100
AcDbEntity
  8
0
  6
Continuous
 62
     7
100
AcDbLine
 10
-416.0021263439253
 20
-13.79952314533665
 30
0.0
 11
-418.0021263439253
 21
-13.79952314533665
 31
0.0
  0
LINE
  5
13E
330
1F
100
AcDbEntity
  8
0
  6
Continuous
 62
     7
100
AcDbLine
 10
-425.502126343918
 20
-4.82950064696925
 30
0.0
 11
-425.5021263439178
 21
1.50154298856165
 31
0.0
  0
LINE
  5
13F
330
1F
100
AcDbEntity
  8
0
  6
Continuous
 62
     7
100
AcDbLine
 10
-407.5021263438732
 20
1.50047685462215
 30
0.0
 11
-407.5021263438735
 21
-17.49952314535986
 31
0.0
  0
LINE
  5
140
330
1F
100
AcDbEntity
  8
0
  6
Continuous
 62
     7
100
AcDbLine
 10
-419.7021263439725
 20
-405.4995231453219
 30
0.0
 11
-419.7021263439725
 21
-407.4995231453219
 31
0.0
  0
LINE
  5
141
330
1F
100
AcDbEntity
  8
0
  6
Continuous
 62
     7
100
AcDbLine
 10
-414.3021263439726
 20
-405.4995231453216
 30
0.0
 11
-414.3021263439725
 21
-407.4995231453216
 31
0.0
  0
LINE
  5
142
330
1F
100
AcDbEntity
  8
0
  6
Continuous
 62
     7
100
AcDbLine
 10
-80.50212634396743
 20
-396.0077175296314
 30
0.0
 11
-80.50212634396362
 21
-394.8295006469768
 31
0.0
  0
LINE
  5
143
330
1F
100
AcDbEntity
  8
0
  6
Continuous
 62
     7
100
AcDbLine
 10
-80.50212634396863
 20
-416.9913287610108
 30
0.0
 11
-80.50212634396482
 21
-418.1695456436653
 31
0.0
  0
LINE
  5
144
330
1F
100
AcDbEntity
  8
0
  6
Continuous
 62
     7
100
AcDbLine
 10
-80.50212634396863
 20
-416.9913287610108
 30
0.0
 11
-80.50212634396743
 21
-396.0077175296314
 31
0.0
  0
LINE
  5
145
330
1F
100
AcDbEntity
  8
0
  6
Continuous
 62
     7
100
AcDbLine
 10
-80.50212634396823
 20
-424.5005892792334
 30
0.0
 11
-80.50212634396482
 21
-418.1695456436653
 31
0.0
  0
LINE
  5
146
330
1F
100
AcDbEntity
  8
0
  6
Continuous
 62
     7
100
AcDbLine
 10
-98.50212634401402
 20
-405.4995231452988
 30
0.0
 11
-98.50212634401453
 21
-424.4995231452911
 31
0.0
  0
LINE
  5
147
330
1F
100
AcDbEntity
  8
0
  6
Continuous
 62
     7
100
AcDbLine
 10
-176.5021263439795
 20
-424.4995231452882
 30
0.0
 11
-176.5021263439843
 21
-405.4995231452814
 31
0.0
  0
LINE
  5
148
330
1F
100
AcDbEntity
  8
0
  6
Continuous
 62
     7
100
AcDbLine
 10
-89.00212634397701
 20
-398.3300337951304
 30
0.0
 11
-84.00212634396351
 21
-398.3300337951301
 31
0.0
  0
LINE
  5
149
330
1F
100
AcDbEntity
  8
0
  6
Continuous
 62
     7
100
AcDbLine
 10
-87.50212634400631
 20
-397.499523145299
 30
0.0
 11
-90.50212634401402
 21
-397.499523145299
 31
0.0
  0
LINE
  5
14A
330
1F
100
AcDbEntity
  8
0
  6
Continuous
 62
     7
100
AcDbLine
 10
-184.5021263439861
 20
-397.4995231452834
 30
0.0
 11
-187.5021263439812
 21
-397.4995231452841
 31
0.0
  0
LINE
  5
14B
330
1F
100
AcDbEntity
  8
0
  6
Continuous
 62
     7
100
AcDbLine
 10
-206.0021263439099
 20
-397.4995231452834
 30
0.0
 11
-203.0021263439148
 21
-397.4995231452841
 31
0.0
  0
LINE
  5
14C
330
1F
100
AcDbEntity
  8
0
  6
Continuous
 62
     7
100
AcDbLine
 10
-90.00212634397343
 20
-409.1995231453219
 30
0.0
 11
-88.00212634397343
 21
-409.1995231453219
 31
0.0
  0
LINE
  5
14D
330
1F
100
AcDbEntity
  8
0
  6
Continuous
 62
     7
100
AcDbLine
 10
-90.00212634397312
 20
-403.7995231453218
 30
0.0
 11
-88.00212634397312
 21
-403.7995231453219
 31
0.0
  0
LINE
  5
14E
330
1F
100
AcDbEntity
  8
0
  6
Continuous
 62
     7
100
AcDbLine
 10
-84.00212634396473
 20
-414.6690124955115
 30
0.0
 11
-89.00212634397752
 21
-414.6690124955111
 31
0.0
  0
LINE
  5
14F
330
1F
100
AcDbEntity
  8
0
  6
Continuous
 62
     7
100
AcDbLine
 10
-199.2521263439316
 20
-165.9995231453143
 30
0.0
 11
-199.2521263439315
 21
-168.4995231453312
 31
0.0
  0
LINE
  5
150
330
1F
100
AcDbEntity
  8
0
  6
Continuous
 62
     7
100
AcDbLine
 10
-192.0021263439823
 20
-392.9995231452853
 30
0.0
 11
-192.002126344026
 21
-214.9995231452409
 31
0.0
  0
LINE
  5
151
330
1F
100
AcDbEntity
  8
0
  6
Continuous
 62
     7
100
AcDbLine
 10
-187.5021263440269
 20
-210.4995231452398
 30
0.0
 11
-184.502126344034
 21
-210.4995231452392
 31
0.0
  0
LINE
  5
152
330
1F
100
AcDbEntity
  8
0
  6
Continuous
 62
     7
100
AcDbLine
 10
-90.50212634400921
 20
-210.4995231452549
 30
0.0
 11
-87.50212634400631
 21
-210.4995231452549
 31
0.0
  0
LINE
  5
153
330
1F
100
AcDbEntity
  8
0
  6
Continuous
 62
     7
100
AcDbLine
 10
-307.5021263440318
 20
-392.9995231452853
 30
0.0
 11
-307.5021263440755
 21
-214.9995231452409
 31
0.0
  0
LINE
  5
154
330
1F
100
AcDbEntity
  8
0
  6
Continuous
 62
     7
100
AcDbLine
 10
-303.0021263440765
 20
-210.4995231452398
 30
0.0
 11
-300.0021263440835
 21
-210.4995231452392
 31
0.0
  0
LINE
  5
155
330
1F
100
AcDbEntity
  8
0
  6
Continuous
 62
     7
100
AcDbLine
 10
-292.0021263440853
 20
-202.4995231452371
 30
0.0
 11
-292.0021263440901
 21
-183.4995231453285
 31
0.0
  0
LINE
  5
156
330
1F
100
AcDbEntity
  8
0
  6
Continuous
 62
     7
100
AcDbLine
 10
-218.5021263438554
 20
-178.9995231453273
 30
0.0
 11
-278.0009298274499
 21
-178.9995231453272
 31
0.0
  0
LINE
  5
157
330
1F
100
AcDbEntity
  8
0
  6
Continuous
 62
     7
100
AcDbLine
 10
-300.0021263440357
 20
-397.4995231452834
 30
0.0
 11
-303.0021263440308
 21
-397.4995231452841
 31
0.0
  0
LINE
  5
158
330
1F
100
AcDbEntity
  8
0
  6
Continuous
 62
     7
100
AcDbLine
 10
-203.0021263438691
 20
-210.4995231452398
 30
0.0
 11
-206.002126343862
 21
-210.4995231452392
 31
0.0
  0
LINE
  5
159
330
1F
100
AcDbEntity
  8
0
  6
Continuous
 62
     7
100
AcDbLine
 10
-314.0021263439633
 20
-392.9995231452853
 30
0.0
 11
-314.0021263439196
 21
-214.9995231452409
 31
0.0
  0
LINE
  5
15A
330
1F
100
AcDbEntity
  8
0
  6
Continuous
 62
     7
100
AcDbLine
 10
-318.5021263439186
 20
-210.4995231452398
 30
0.0
 11
-321.5021263439116
 21
-210.4995231452392
 31
0.0
  0
LINE
  5
15B
330
1F
100
AcDbEntity
  8
0
  6
Continuous
 62
     7
100
AcDbLine
 10
-321.5021263439594
 20
-397.4995231452834
 30
0.0
 11
-318.5021263439643
 21
-397.4995231452841
 31
0.0
  0
LINE
  5
15C
330
1F
100
AcDbEntity
  8
0
  6
Continuous
 62
     7
100
AcDbLine
 10
-292.002126344029
 20
-424.4995231452882
 30
0.0
 11
-292.0021263440339
 21
-405.4995231452815
 31
0.0
  0
LINE
  5
15D
330
1F
100
AcDbEntity
  8
0
  6
Continuous
 62
     7
100
AcDbLine
 10
-216.2521263439315
 20
-172.9995231453312
 30
0.0
 11
-277.9192542755792
 21
-172.9995231453312
 31
0.0
  0
LINE
  5
15E
330
1F
100
AcDbEntity
  8
0
  6
Continuous
 62
     7
100
AcDbLine
 10
-294.2521263439591
 20
-0.99952314534627
 30
0.0
 11
-294.2521263439591
 21
1.50047685462835
 31
0.0
  0
LINE
  5
15F
330
1F
100
AcDbEntity
  8
0
  6
Continuous
 62
     7
100
AcDbLine
 10
-306.7521263439591
 20
-0.99952314534627
 30
0.0
 11
-306.7521263439591
 21
1.50047685462715
 31
0.0
  0
LINE
  5
160
330
1F
100
AcDbEntity
  8
0
  6
Continuous
 62
     7
100
AcDbLine
 10
-211.7521263439315
 20
-165.9995231453144
 30
0.0
 11
-211.7521263439315
 21
-168.4995231453312
 31
0.0
  0
LINE
  5
161
330
1F
100
AcDbEntity
  8
0
  6
Continuous
 62
     7
100
AcDbLine
 10
-103.0021263439826
 20
-172.9995231453312
 30
0.0
 11
-194.7521263439314
 21
-172.9995231453312
 31
0.0
  0
LINE
  5
162
330
1F
100
AcDbEntity
  8
0
  6
Continuous
 62
     7
100
AcDbLine
 10
-98.50212634400873
 20
-183.4995231453273
 30
0.0
 11
-98.50212634400921
 21
-202.4995231452546
 31
0.0
  0
LINE
  5
163
330
1F
100
AcDbEntity
  8
0
  6
Continuous
 62
     7
100
AcDbLine
 10
-176.5021263440358
 20
-202.4995231452371
 30
0.0
 11
-176.5021263440406
 21
-183.4995231453285
 31
0.0
  0
LINE
  5
164
330
1F
100
AcDbEntity
  8
0
  6
Continuous
 62
     7
100
AcDbLine
 10
-172.0021263440406
 20
-178.9995231453273
 30
0.0
 11
-103.0021263440087
 21
-178.9995231453273
 31
0.0
  0
LINE
  5
165
330
1F
100
AcDbEntity
  8
0
  6
Continuous
 62
     7
100
AcDbLine
 10
-98.50212634398312
 20
-149.499523145304
 30
0.0
 11
-98.50212634398261
 21
-168.4995231453312
 31
0.0
  0
LINE
  5
166
330
1F
100
AcDbEntity
  8
0
  6
Continuous
 62
     7
100
AcDbLine
 10
-87.50212634398022
 20
-141.4995231453039
 30
0.0
 11
-90.50212634398301
 21
-141.4995231453039
 31
0.0
  0
LINE
  5
167
330
1F
100
AcDbEntity
  8
0
  6
Continuous
 62
     7
100
AcDbLine
 10
-90.50212634398801
 20
-25.49952314535966
 30
0.0
 11
-87.50212634398031
 21
-25.49952314535966
 31
0.0
  0
LINE
  5
168
330
1F
100
AcDbEntity
  8
0
  6
Continuous
 62
     7
100
AcDbLine
 10
-98.50212634398841
 20
1.50047685463903
 30
0.0
 11
-98.50212634398801
 21
-17.49952314535986
 31
0.0
  0
LINE
  5
169
330
1F
100
AcDbEntity
  8
0
  6
Continuous
 62
     7
100
AcDbLine
 10
-91.70212634395043
 20
-17.49952314533257
 30
0.0
 11
-91.70212634395051
 21
-15.49952314533257
 31
0.0
  0
LINE
  5
16A
330
1F
100
AcDbEntity
  8
0
  6
Continuous
 62
     7
100
AcDbLine
 10
-86.30212634395062
 20
-15.49952314533235
 30
0.0
 11
-86.30212634395053
 21
-17.49952314533235
 31
0.0
  0
LINE
  5
16B
330
1F
100
AcDbEntity
  8
0
  6
Continuous
 62
     7
100
AcDbLine
 10
-83.00212634400631
 20
-214.9995231452549
 30
0.0
 11
-83.00212634400631
 21
-392.999523145299
 31
0.0
  0
LINE
  5
16C
330
1F
100
AcDbEntity
  8
0
  6
Continuous
 62
     7
100
AcDbLine
 10
-287.5021263440294
 20
-428.9995231452871
 30
0.0
 11
-218.5021263439162
 21
-428.9995231452871
 31
0.0
  0
LINE
  5
16D
330
1F
100
AcDbEntity
  8
0
  6
Continuous
 62
     7
100
AcDbLine
 10
-103.0021263440148
 20
-428.9995231452909
 30
0.0
 11
-172.0021263439798
 21
-428.9995231452871
 31
0.0
  0
LINE
  5
16E
330
1F
100
AcDbEntity
  8
0
  6
Continuous
 62
     7
100
AcDbLine
 10
-198.5021263439137
 20
-392.9995231452853
 30
0.0
 11
-198.5021263438701
 21
-214.9995231452409
 31
0.0
  0
LINE
  5
16F
330
1F
100
AcDbEntity
  8
0
  6
Continuous
 62
     7
100
AcDbLine
 10
-214.0021263439164
 20
-424.4995231452882
 30
0.0
 11
-214.0021263439117
 21
-405.4995231452814
 31
0.0
  0
LINE
  5
170
330
1F
100
AcDbEntity
  8
0
  6
Continuous
 62
     7
100
AcDbLine
 10
-89.00212634395163
 20
-24.66901249552836
 30
0.0
 11
-84.00212634394202
 21
-24.66901249552836
 31
0.0
  0
LINE
  5
171
330
1F
100
AcDbEntity
  8
0
  6
Continuous
 62
     7
100
AcDbLine
 10
-83.00212634398031
 20
-29.99952314535966
 30
0.0
 11
-83.00212634398022
 21
-136.9995231453039
 31
0.0
  0
LINE
  5
172
330
1F
100
AcDbEntity
  8
0
  6
Continuous
 62
     7
100
AcDbLine
 10
-84.00212634394313
 20
-8.33003379514727
 30
0.0
 11
-89.00212634395203
 21
-8.33003379514747
 31
0.0
  0
LINE
  5
173
330
1F
100
AcDbEntity
  8
0
  6
Continuous
 62
     7
100
AcDbLine
 10
-403.0021263438733
 20
6.00047685462195
 30
0.0
 11
-311.2521263439594
 21
6.00047685462715
 31
0.0
  0
LINE
  5
174
330
1F
100
AcDbEntity
  8
0
  6
Continuous
 62
     7
100
AcDbLine
 10
-422.0021263439808
 20
-414.6690124955115
 30
0.0
 11
-417.0021263439681
 21
-414.6690124955111
 31
0.0
  0
LINE
  5
175
330
1F
100
AcDbEntity
  8
0
  6
Continuous
 62
     7
100
AcDbLine
 10
-417.0021263438979
 20
-24.66901249552865
 30
0.0
 11
-422.0021263439192
 21
-24.66901249552865
 31
0.0
  0
LINE
  5
176
330
1F
100
AcDbEntity
  8
0
  6
Continuous
 62
     7
100
AcDbLine
 10
-214.0021263438602
 20
-202.4995231452371
 30
0.0
 11
-214.0021263438554
 21
-183.4995231453284
 31
0.0
  0
LINE
  5
177
330
1F
100
AcDbEntity
  8
1
  6
DOT_CENTER
 62
     2
100
AcDbLine
 10
482.7703492135629
 20
15.68281386990994
 30
0.0
 11
482.7703492135581
 21
2.12442412281305
 31
0.0
  0
LINE
  5
178
330
1F
100
AcDbEntity
  8
1
  6
DOT_CENTER
 62
     2
100
AcDbLine
 10
489.7703492135709
 20
16.10651354950674
 30
0.0
 11
489.7703492135598
 21
1.91257428301574
 31
0.0
  0
ARC
  5
179
330
1F
100
AcDbEntity
  8
0
  6
Continuous
 62
     7
100
AcDbCircle
 10
452.7703492134571
 20
6.20864972193294
 30
0.0
 40
0.9999999999972072
100
AcDbArc
 50
90.99999999872117
 51
180.0000000001319
  0
ARC
  5
17A
330
1F
100
AcDbEntity
  8
0
  6
DASHED
 62
     7
100
AcDbCircle
 10
-417.0021263440002
 20
-1351.299523145333
 30
0.0
 40
2.699999999999989
100
AcDbArc
 50
0.0
 51
180.0000000000193
  0
ARC
  5
17B
330
1F
100
AcDbEntity
  8
0
  6
DASHED
 62
     7
100
AcDbCircle
 10
-89.00212634394603
 20
-961.2995231453415
 30
0.0
 40
2.699999999999989
100
AcDbArc
 50
0.00000000000483
 51
180.0
  0
ARC
  5
17C
330
1F
100
AcDbEntity
  8
0
  6
DASHED
 62
     7
100
AcDbCircle
 10
-89.00212634394583
 20
-963.2995231453415
 30
0.0
 40
2.700000000000017
100
AcDbArc
 50
180.0
 51
0.00000000000483
  0
ARC
  5
17D
330
1F
100
AcDbEntity
  8
0
  6
DASHED
 62
     7
100
AcDbCircle
 10
-88.00212634396865
 20
-1352.299523145331
 30
0.0
 40
2.700000000000045
100
AcDbArc
 50
269.9999999999964
 51
89.9999999999976
  0
ARC
  5
17E
330
1F
100
AcDbEntity
  8
0
  6
DASHED
 62
     7
100
AcDbCircle
 10
-90.00212634396865
 20
-1352.299523145331
 30
0.0
 40
2.700000000000045
100
AcDbArc
 50
89.9999999999976
 51
269.9999999999964
  0
ARC
  5
17F
330
1F
100
AcDbEntity
  8
0
  6
DASHED
 62
     7
100
AcDbCircle
 10
-418.0021263439583
 20
-962.2995231453456
 30
0.0
 40
2.700000000000045
100
AcDbArc
 50
89.99999999999517
 51
269.9999999999964
  0
ARC
  5
180
330
1F
100
AcDbEntity
  8
0
  6
DASHED
 62
     7
100
AcDbCircle
 10
-416.0021263439583
 20
-962.2995231453456
 30
0.0
 40
2.700000000000045
100
AcDbArc
 50
269.9999999999964
 51
89.99999999999517
  0
ARC
  5
181
330
1F
100
AcDbEntity
  8
0
  6
DASHED
 62
     7
100
AcDbCircle
 10
-417.0021263440001
 20
-1353.299523145333
 30
0.0
 40
2.699999999999989
100
AcDbArc
 50
180.0000000000193
 51
0.0
  0
ARC
  5
182
330
1F
100
AcDbEntity
  8
0
  6
Continuous
 62
     7
100
AcDbCircle
 10
-311.2521263439591
 20
1.50047685462715
 30
0.0
 40
4.5
100
AcDbArc
 50
0.0
 51
90.00000000000362
  0
ARC
  5
183
330
1F
100
AcDbEntity
  8
0
  6
Continuous
 62
     7
100
AcDbCircle
 10
-289.7521263439591
 20
1.50047685462835
 30
0.0
 40
4.5
100
AcDbArc
 50
90.00000000000362
 51
180.0
  0
ARC
  5
184
330
1F
100
AcDbEntity
  8
0
  6
Continuous
 62
     7
100
AcDbCircle
 10
-321.5021263439098
 20
-202.4995231452392
 30
0.0
 40
8.0
100
AcDbArc
 50
179.9999999999849
 51
269.9999999999874
  0
ARC
  5
185
330
1F
100
AcDbEntity
  8
0
  6
Continuous
 62
     7
100
AcDbCircle
 10
-321.5021263439612
 20
-405.4995231452834
 30
0.0
 40
8.0
100
AcDbArc
 50
89.99999999998697
 51
179.9999999999866
  0
ARC
  5
186
330
1F
100
AcDbEntity
  8
0
  6
Continuous
 62
     7
100
AcDbCircle
 10
-403.0021263439368
 20
-183.4995231453273
 30
0.0
 40
4.5
100
AcDbArc
 50
89.99999999999855
 51
180.000000000004
  0
ARC
  5
187
330
1F
100
AcDbEntity
  8
0
  6
Continuous
 62
     7
100
AcDbCircle
 10
-417.0021263439724
 20
-407.4995231453218
 30
0.0
 40
2.700000000000102
100
AcDbArc
 50
180.0000000000024
 51
0.00000000000483
  0
ARC
  5
188
330
1F
100
AcDbEntity
  8
0
  6
Continuous
 62
     7
100
AcDbCircle
 10
-418.5021263439392
 20
-214.9995231452549
 30
0.0
 40
4.5
100
AcDbArc
 50
90.0
 51
180.0
  0
ARC
  5
189
330
1F
100
AcDbEntity
  8
0
  6
Continuous
 62
     7
100
AcDbCircle
 10
-415.5021263439363
 20
-202.4995231452549
 30
0.0
 40
8.0
100
AcDbArc
 50
270.0
 51
0.00000000000204
  0
ARC
  5
18A
330
1F
100
AcDbEntity
  8
0
  6
Continuous
 62
     7
100
AcDbCircle
 10
-418.5021263439392
 20
-392.999523145299
 30
0.0
 40
4.5
100
AcDbArc
 50
180.0
 51
270.0
  0
ARC
  5
18B
330
1F
100
AcDbEntity
  8
0
  6
Continuous
 62
     7
100
AcDbCircle
 10
-415.5021263439315
 20
-405.499523145299
 30
0.0
 40
8.0
100
AcDbArc
 50
0.00000000000163
 51
90.0
  0
ARC
  5
18C
330
1F
100
AcDbEntity
  8
0
  6
Continuous
 62
     7
100
AcDbCircle
 10
-334.0021263439049
 20
-183.4995231453273
 30
0.0
 40
4.5
100
AcDbArc
 50
359.9999999999844
 51
90.0
  0
ARC
  5
18D
330
1F
100
AcDbEntity
  8
0
  6
Continuous
 62
     7
100
AcDbCircle
 10
-418.5021263438812
 20
-136.9995231453039
 30
0.0
 40
4.5
100
AcDbArc
 50
180.0
 51
270.0
  0
ARC
  5
18E
330
1F
100
AcDbEntity
  8
0
  6
Continuous
 62
     7
100
AcDbCircle
 10
-415.5021263438784
 20
-149.4995231453039
 30
0.0
 40
8.0
100
AcDbArc
 50
359.9999999999992
 51
90.0
  0
ARC
  5
18F
330
1F
100
AcDbEntity
  8
0
  6
Continuous
 62
     7
100
AcDbCircle
 10
-403.0021263438788
 20
-168.4995231453314
 30
0.0
 40
4.500000000000227
100
AcDbArc
 50
179.9999999999975
 51
270.0
  0
ARC
  5
190
330
1F
100
AcDbEntity
  8
0
  6
Continuous
 62
     7
100
AcDbCircle
 10
-415.5021263438735
 20
-17.49952314535966
 30
0.0
 40
8.0
100
AcDbArc
 50
270.0
 51
359.9999999999986
  0
ARC
  5
191
330
1F
100
AcDbEntity
  8
0
  6
Continuous
 62
     7
100
AcDbCircle
 10
-418.5021263438812
 20
-29.99952314535966
 30
0.0
 40
4.5
100
AcDbArc
 50
90.0
 51
180.0
  0
ARC
  5
192
330
1F
100
AcDbEntity
  8
0
  6
Continuous
 62
     7
100
AcDbCircle
 10
-403.002126343931
 20
-424.4995231452909
 30
0.0
 40
4.5
100
AcDbArc
 50
180.0000000000029
 51
270.0000000000043
  0
ARC
  5
193
330
1F
100
AcDbEntity
  8
0
  6
Continuous
 62
     7
100
AcDbCircle
 10
-334.002126343966
 20
-424.4995231452871
 30
0.0
 40
4.5
100
AcDbArc
 50
270.0000000000021
 51
359.9999999999862
  0
ARC
  5
194
330
1F
100
AcDbEntity
  8
0
  6
Continuous
 62
     7
100
AcDbCircle
 10
-417.0021263438979
 20
-16.49952314533806
 30
0.0
 40
8.169489350190592
100
AcDbArc
 50
270.0
 51
89.99999999999721
  0
ARC
  5
195
330
1F
100
AcDbEntity
  8
0
  6
Continuous
 62
     7
100
AcDbCircle
 10
-416.0021263439255
 20
-16.49952314533667
 30
0.0
 40
2.700000000000099
100
AcDbArc
 50
269.9999999999964
 51
89.99999999999517
  0
ARC
  5
196
330
1F
100
AcDbEntity
  8
0
  6
Continuous
 62
     7
100
AcDbCircle
 10
-418.0021263439255
 20
-16.49952314533667
 30
0.0
 40
2.700000000000021
100
AcDbArc
 50
89.99999999999517
 51
269.9999999999964
  0
ARC
  5
197
330
1F
100
AcDbEntity
  8
0
  6
Continuous
 62
     7
100
AcDbCircle
 10
-203.0021263439137
 20
-392.9995231452841
 30
0.0
 40
4.5
100
AcDbArc
 50
269.9999999999858
 51
359.9999999999848
  0
ARC
  5
198
330
1F
100
AcDbEntity
  8
0
  6
Continuous
 62
     7
100
AcDbCircle
 10
-187.5021263439823
 20
-392.9995231452841
 30
0.0
 40
4.5
100
AcDbArc
 50
180.0000000000152
 51
270.0000000000141
  0
ARC
  5
199
330
1F
100
AcDbEntity
  8
0
  6
Continuous
 62
     7
100
AcDbCircle
 10
-90.00212634397323
 20
-406.4995231453219
 30
0.0
 40
2.700000000000102
100
AcDbArc
 50
89.9999999999976
 51
269.9999999999957
  0
ARC
  5
19A
330
1F
100
AcDbEntity
  8
0
  6
Continuous
 62
     7
100
AcDbCircle
 10
-88.00212634397323
 20
-406.499523145322
 30
0.0
 40
2.699999999999932
100
AcDbArc
 50
269.9999999999957
 51
89.9999999999976
  0
ARC
  5
19B
330
1F
100
AcDbEntity
  8
0
  6
Continuous
 62
     7
100
AcDbCircle
 10
-87.50212634400631
 20
-392.999523145299
 30
0.0
 40
4.5
100
AcDbArc
 50
270.0
 51
0.0
  0
ARC
  5
19C
330
1F
100
AcDbEntity
  8
0
  6
Continuous
 62
     7
100
AcDbCircle
 10
-184.5021263439843
 20
-405.4995231452834
 30
0.0
 40
8.0
100
AcDbArc
 50
0.00000000001425
 51
90.00000000001303
  0
ARC
  5
19D
330
1F
100
AcDbEntity
  8
0
  6
Continuous
 62
     7
100
AcDbCircle
 10
-194.7521263439314
 20
-168.4995231453312
 30
0.0
 40
4.500000000000114
100
AcDbArc
 50
180.0
 51
270.0
  0
ARC
  5
19E
330
1F
100
AcDbEntity
  8
0
  6
Continuous
 62
     7
100
AcDbCircle
 10
-172.0021263440406
 20
-183.4995231453273
 30
0.0
 40
4.5
100
AcDbArc
 50
90.0
 51
180.0000000000155
  0
ARC
  5
19F
330
1F
100
AcDbEntity
  8
0
  6
Continuous
 62
     7
100
AcDbCircle
 10
-184.5021263440358
 20
-202.4995231452392
 30
0.0
 40
8.0
100
AcDbArc
 50
270.0000000000128
 51
0.00000000001506
  0
ARC
  5
1A0
330
1F
100
AcDbEntity
  8
0
  6
Continuous
 62
     7
100
AcDbCircle
 10
-203.0021263438701
 20
-214.9995231452398
 30
0.0
 40
4.5
100
AcDbArc
 50
359.9999999999862
 51
89.99999999998734
  0
ARC
  5
1A1
330
1F
100
AcDbEntity
  8
0
  6
Continuous
 62
     7
100
AcDbCircle
 10
-187.502126344026
 20
-214.9995231452398
 30
0.0
 40
4.5
100
AcDbArc
 50
90.00000000001121
 51
180.0000000000138
  0
ARC
  5
1A2
330
1F
100
AcDbEntity
  8
0
  6
Continuous
 62
     7
100
AcDbCircle
 10
-90.50212634400921
 20
-202.4995231452549
 30
0.0
 40
8.0
100
AcDbArc
 50
179.999999999998
 51
270.0
  0
ARC
  5
1A3
330
1F
100
AcDbEntity
  8
0
  6
Continuous
 62
     7
100
AcDbCircle
 10
-205.5021263439316
 20
-165.9995231453143
 30
0.0
 40
6.25
100
AcDbArc
 50
0.0
 51
180.0000000000011
  0
ARC
  5
1A4
330
1F
100
AcDbEntity
  8
0
  6
Continuous
 62
     7
100
AcDbCircle
 10
-300.0021263440854
 20
-202.4995231452392
 30
0.0
 40
8.0
100
AcDbArc
 50
270.0000000000138
 51
0.00000000001506
  0
ARC
  5
1A5
330
1F
100
AcDbEntity
  8
0
  6
Continuous
 62
     7
100
AcDbCircle
 10
-287.5021263440901
 20
-183.4995231453273
 30
0.0
 40
4.5
100
AcDbArc
 50
90.00000000000146
 51
180.0000000000155
  0
ARC
  5
1A6
330
1F
100
AcDbEntity
  8
0
  6
Continuous
 62
     7
100
AcDbCircle
 10
-303.0021263440755
 20
-214.9995231452398
 30
0.0
 40
4.5
100
AcDbArc
 50
90.0000000000123
 51
180.0000000000138
  0
ARC
  5
1A7
330
1F
100
AcDbEntity
  8
0
  6
Continuous
 62
     7
100
AcDbCircle
 10
-206.0021263438602
 20
-202.4995231452392
 30
0.0
 40
8.0
100
AcDbArc
 50
179.9999999999849
 51
269.9999999999872
  0
ARC
  5
1A8
330
1F
100
AcDbEntity
  8
0
  6
Continuous
 62
     7
100
AcDbCircle
 10
-303.0021263440318
 20
-392.9995231452841
 30
0.0
 40
4.5
100
AcDbArc
 50
180.0000000000152
 51
270.000000000013
  0
ARC
  5
1A9
330
1F
100
AcDbEntity
  8
0
  6
Continuous
 62
     7
100
AcDbCircle
 10
-318.5021263439633
 20
-392.9995231452841
 30
0.0
 40
4.5
100
AcDbArc
 50
269.9999999999877
 51
359.9999999999848
  0
ARC
  5
1AA
330
1F
100
AcDbEntity
  8
0
  6
Continuous
 62
     7
100
AcDbCircle
 10
-318.5021263439196
 20
-214.9995231452398
 30
0.0
 40
4.5
100
AcDbArc
 50
359.9999999999862
 51
89.99999999998697
  0
ARC
  5
1AB
330
1F
100
AcDbEntity
  8
0
  6
Continuous
 62
     7
100
AcDbCircle
 10
-300.0021263440339
 20
-405.4995231452834
 30
0.0
 40
8.0
100
AcDbArc
 50
0.00000000001343
 51
90.00000000001263
  0
ARC
  5
1AC
330
1F
100
AcDbEntity
  8
0
  6
Continuous
 62
     7
100
AcDbCircle
 10
-300.5021263439591
 20
-0.99952314534627
 30
0.0
 40
6.25
100
AcDbArc
 50
180.0
 51
0.0
  0
ARC
  5
1AD
330
1F
100
AcDbEntity
  8
0
  6
Continuous
 62
     7
100
AcDbCircle
 10
-216.2521263439315
 20
-168.4995231453312
 30
0.0
 40
4.5
100
AcDbArc
 50
270.0
 51
0.0
  0
ARC
  5
1AE
330
1F
100
AcDbEntity
  8
0
  6
Continuous
 62
     7
100
AcDbCircle
 10
-89.00212634395041
 20
-17.49952314533257
 30
0.0
 40
2.700000000000017
100
AcDbArc
 50
180.0
 51
0.00000000000467
  0
ARC
  5
1AF
330
1F
100
AcDbEntity
  8
0
  6
Continuous
 62
     7
100
AcDbCircle
 10
-90.50212634398301
 20
-149.4995231453039
 30
0.0
 40
8.0
100
AcDbArc
 50
90.0
 51
180.0000000000008
  0
ARC
  5
1B0
330
1F
100
AcDbEntity
  8
0
  6
Continuous
 62
     7
100
AcDbCircle
 10
-103.0021263439826
 20
-168.4995231453312
 30
0.0
 40
4.5
100
AcDbArc
 50
270.0
 51
0.0
  0
ARC
  5
1B1
330
1F
100
AcDbEntity
  8
0
  6
Continuous
 62
     7
100
AcDbCircle
 10
-103.0021263440087
 20
-183.4995231453273
 30
0.0
 40
4.499999999999972
100
AcDbArc
 50
0.0
 51
90.0
  0
ARC
  5
1B2
330
1F
100
AcDbEntity
  8
0
  6
Continuous
 62
     7
100
AcDbCircle
 10
-90.50212634398801
 20
-17.49952314535966
 30
0.0
 40
8.0
100
AcDbArc
 50
180.0000000000014
 51
270.0
  0
ARC
  5
1B3
330
1F
100
AcDbEntity
  8
0
  6
Continuous
 62
     7
100
AcDbCircle
 10
-89.00212634395152
 20
-16.49952314533806
 30
0.0
 40
8.169489350190588
100
AcDbArc
 50
90.0000000000036
 51
269.9999999999992
  0
ARC
  5
1B4
330
1F
100
AcDbEntity
  8
0
  6
Continuous
 62
     7
100
AcDbCircle
 10
-89.00212634395064
 20
-15.49952314533257
 30
0.0
 40
2.700000000000017
100
AcDbArc
 50
0.00000000000467
 51
180.0
  0
ARC
  5
1B5
330
1F
100
AcDbEntity
  8
0
  6
Continuous
 62
     7
100
AcDbCircle
 10
-87.50212634400631
 20
-214.9995231452549
 30
0.0
 40
4.5
100
AcDbArc
 50
0.0
 51
90.0
  0
ARC
  5
1B6
330
1F
100
AcDbEntity
  8
0
  6
Continuous
 62
     7
100
AcDbCircle
 10
-87.50212634398022
 20
-136.9995231453039
 30
0.0
 40
4.5
100
AcDbArc
 50
270.0
 51
0.0
  0
ARC
  5
1B7
330
1F
100
AcDbEntity
  8
0
  6
Continuous
 62
     7
100
AcDbCircle
 10
-87.50212634398031
 20
-29.99952314535966
 30
0.0
 40
4.5
100
AcDbArc
 50
0.0
 51
90.0
  0
ARC
  5
1B8
330
1F
100
AcDbEntity
  8
0
  6
Continuous
 62
     7
100
AcDbCircle
 10
-218.5021263439164
 20
-424.4995231452871
 30
0.0
 40
4.5
100
AcDbArc
 50
270.0000000000026
 51
359.9999999999862
  0
ARC
  5
1B9
330
1F
100
AcDbEntity
  8
0
  6
Continuous
 62
     7
100
AcDbCircle
 10
-172.0021263439795
 20
-424.4995231452871
 30
0.0
 40
4.5
100
AcDbArc
 50
180.0000000000138
 51
269.9999999999964
  0
ARC
  5
1BA
330
1F
100
AcDbEntity
  8
0
  6
Continuous
 62
     7
100
AcDbCircle
 10
-103.0021263440145
 20
-424.4995231452909
 30
0.0
 40
4.5
100
AcDbArc
 50
269.9999999999962
 51
359.9999999999971
  0
ARC
  5
1BB
330
1F
100
AcDbEntity
  8
0
  6
Continuous
 62
     7
100
AcDbCircle
 10
-206.0021263439117
 20
-405.4995231452834
 30
0.0
 40
8.0
100
AcDbArc
 50
89.99999999998718
 51
179.9999999999858
  0
ARC
  5
1BC
330
1F
100
AcDbEntity
  8
0
  6
Continuous
 62
     7
100
AcDbCircle
 10
-287.5021263440291
 20
-424.4995231452871
 30
0.0
 40
4.499999999999943
100
AcDbArc
 50
180.0000000000138
 51
269.9999999999956
  0
ARC
  5
1BD
330
1F
100
AcDbEntity
  8
0
  6
Continuous
 62
     7
100
AcDbCircle
 10
-417.0021263439685
 20
-406.4995231453207
 30
0.0
 40
8.16948935019036
100
AcDbArc
 50
270.0000000000028
 51
90.0
  0
ARC
  5
1BE
330
1F
100
AcDbEntity
  8
0
  6
Continuous
 62
     7
100
AcDbCircle
 10
-417.0021263439725
 20
-405.4995231453218
 30
0.0
 40
2.699999999999932
100
AcDbArc
 50
0.00000000000483
 51
180.0000000000024
  0
ARC
  5
1BF
330
1F
100
AcDbEntity
  8
0
  6
Continuous
 62
     7
100
AcDbCircle
 10
-103.0021263439884
 20
1.50047685463875
 30
0.0
 40
4.499999999999986
100
AcDbArc
 50
0.00000000000362
 51
90.00000000000398
  0
ARC
  5
1C0
330
1F
100
AcDbEntity
  8
0
  6
Continuous
 62
     7
100
AcDbCircle
 10
-403.0021263438732
 20
1.50047685462195
 30
0.0
 40
4.5
100
AcDbArc
 50
90.00000000000072
 51
179.9999999999975
  0
ARC
  5
1C1
330
1F
100
AcDbEntity
  8
0
  6
Continuous
 62
     7
100
AcDbCircle
 10
-218.5021263438554
 20
-183.4995231453273
 30
0.0
 40
4.5
100
AcDbArc
 50
359.9999999999859
 51
90.0
  0
ARC
  5
1C2
330
1F
100
AcDbEntity
  8
0
  6
Continuous
 62
     7
100
AcDbCircle
 10
-89.00212634397693
 20
-406.4995231453207
 30
0.0
 40
8.169489350190304
100
AcDbArc
 50
90.0000000000006
 51
269.9999999999959
  0
ARC
  5
1C3
330
1F
100
AcDbEntity
  8
0
  6
Continuous
 62
     7
100
AcDbCircle
 10
-90.50212634401402
 20
-405.499523145299
 30
0.0
 40
8.0
100
AcDbArc
 50
90.0
 51
179.9999999999984
  0
CIRCLE
  5
1C4
330
1F
100
AcDbEntity
  8
0
  6
Continuous
 62
     7
100
AcDbCircle
 10
-416.0021263439792
 20
-185.9995231453277
 30
0.0
 40
2.600000000000023
  0
CIRCLE
  5
1C5
330
1F
100
AcDbEntity
  8
0
  6
Continuous
 62
     7
100
AcDbCircle
 10
-416.0021263439201
 20
-165.9995231453317
 30
0.0
 40
2.599999999999909
  0
CIRCLE
  5
1C6
330
1F
100
AcDbEntity
  8
0
  6
Continuous
 62
     7
100
AcDbCircle
 10
-388.0021263439347
 20
-144.9995231453405
 30
0.0
 40
1.400000000000432
  0
CIRCLE
  5
1C7
330
1F
100
AcDbEntity
  8
0
  6
Continuous
 62
     7
100
AcDbCircle
 10
-416.0021263439664
 20
-421.999523145326
 30
0.0
 40
2.599999999999909
  0
CIRCLE
  5
1C8
330
1F
100
AcDbEntity
  8
0
  6
Continuous
 62
     7
100
AcDbCircle
 10
-416.0021263439073
 20
-0.99952314533215
 30
0.0
 40
2.599999999999881
  0
CIRCLE
  5
1C9
330
1F
100
AcDbEntity
  8
0
  6
Continuous
 62
     7
100
AcDbCircle
 10
-196.0021263439342
 20
-144.9995231453405
 30
0.0
 40
1.400000000000006
  0
CIRCLE
  5
1CA
330
1F
100
AcDbEntity
  8
0
  6
Continuous
 62
     7
100
AcDbCircle
 10
-196.0021263439342
 20
-144.9995231453405
 30
0.0
 40
6.139945152312919
  0
CIRCLE
  5
1CB
330
1F
100
AcDbEntity
  8
0
  6
Continuous
 62
     7
100
AcDbCircle
 10
-118.0021263439341
 20
-22.99952314533437
 30
0.0
 40
1.399999999999892
  0
CIRCLE
  5
1CC
330
1F
100
AcDbEntity
  8
0
  6
Continuous
 62
     7
100
AcDbCircle
 10
-300.5021263439697
 20
-421.9995231453105
 30
0.0
 40
2.599999999999966
  0
CIRCLE
  5
1CD
330
1F
100
AcDbEntity
  8
0
  6
Continuous
 62
     7
100
AcDbCircle
 10
-321.0021263440254
 20
-421.9995231453105
 30
0.0
 40
2.600000000000023
  0
CIRCLE
  5
1CE
330
1F
100
AcDbEntity
  8
0
  6
Continuous
 62
     7
100
AcDbCircle
 10
-205.5021263439759
 20
-421.9995231453105
 30
0.0
 40
2.599999999999909
  0
CIRCLE
  5
1CF
330
1F
100
AcDbEntity
  8
0
  6
Continuous
 62
     7
100
AcDbCircle
 10
-220.0021263439731
 20
-357.4995231453282
 30
0.0
 40
6.139945152313004
  0
CIRCLE
  5
1D0
330
1F
100
AcDbEntity
  8
0
  6
Continuous
 62
     7
100
AcDbCircle
 10
-220.0021263439731
 20
-357.4995231453282
 30
0.0
 40
1.399999999999892
  0
CIRCLE
  5
1D1
330
1F
100
AcDbEntity
  8
0
  6
Continuous
 62
     7
100
AcDbCircle
 10
-220.0021263439731
 20
-250.4995231453283
 30
0.0
 40
6.139945152313004
  0
CIRCLE
  5
1D2
330
1F
100
AcDbEntity
  8
0
  6
Continuous
 62
     7
100
AcDbCircle
 10
-220.0021263439731
 20
-250.4995231453283
 30
0.0
 40
1.399999999999892
  0
CIRCLE
  5
1D3
330
1F
100
AcDbEntity
  8
0
  6
Continuous
 62
     7
100
AcDbCircle
 10
-401.5021263440228
 20
-250.4995231453283
 30
0.0
 40
1.400000000000148
  0
CIRCLE
  5
1D4
330
1F
100
AcDbEntity
  8
0
  6
Continuous
 62
     7
100
AcDbCircle
 10
-401.5021263440228
 20
-357.4995231453282
 30
0.0
 40
1.400000000000148
  0
CIRCLE
  5
1D5
330
1F
100
AcDbEntity
  8
0
  6
Continuous
 62
     7
100
AcDbCircle
 10
-300.5021263440105
 20
-185.9995231453123
 30
0.0
 40
2.599999999999824
  0
CIRCLE
  5
1D6
330
1F
100
AcDbEntity
  8
0
  6
Continuous
 62
     7
100
AcDbCircle
 10
-286.0021263439723
 20
-357.4995231453282
 30
0.0
 40
6.139945152312805
  0
CIRCLE
  5
1D7
330
1F
100
AcDbEntity
  8
0
  6
Continuous
 62
     7
100
AcDbCircle
 10
-286.0021263439723
 20
-250.4995231453283
 30
0.0
 40
6.139945152312805
  0
CIRCLE
  5
1D8
330
1F
100
AcDbEntity
  8
0
  6
Continuous
 62
     7
100
AcDbCircle
 10
-205.502126343935
 20
-185.9995231453123
 30
0.0
 40
2.599999999999824
  0
CIRCLE
  5
1D9
330
1F
100
AcDbEntity
  8
0
  6
Continuous
 62
     7
100
AcDbCircle
 10
-335.5021263440227
 20
-357.4995231453282
 30
0.0
 40
6.139945152312862
  0
CIRCLE
  5
1DA
330
1F
100
AcDbEntity
  8
0
  6
Continuous
 62
     7
100
AcDbCircle
 10
-335.5021263440227
 20
-357.4995231453282
 30
0.0
 40
1.400000000000034
  0
CIRCLE
  5
1DB
330
1F
100
AcDbEntity
  8
0
  6
Continuous
 62
     7
100
AcDbCircle
 10
-335.5021263440227
 20
-250.4995231453283
 30
0.0
 40
6.139945152312862
  0
CIRCLE
  5
1DC
330
1F
100
AcDbEntity
  8
0
  6
Continuous
 62
     7
100
AcDbCircle
 10
-335.5021263440227
 20
-250.4995231453283
 30
0.0
 40
1.400000000000034
  0
CIRCLE
  5
1DD
330
1F
100
AcDbEntity
  8
0
  6
Continuous
 62
     7
100
AcDbCircle
 10
-321.0021263439845
 20
-185.9995231453123
 30
0.0
 40
2.599999999999824
  0
CIRCLE
  5
1DE
330
1F
100
AcDbEntity
  8
0
  6
Continuous
 62
     7
100
AcDbCircle
 10
-388.0021263439347
 20
-144.9995231453405
 30
0.0
 40
6.139945152313317
  0
CIRCLE
  5
1DF
330
1F
100
AcDbEntity
  8
0
  6
Continuous
 62
     7
100
AcDbCircle
 10
-300.5021263439591
 20
-0.99952314534627
 30
0.0
 40
2.600000000014007
  0
CIRCLE
  5
1E0
330
1F
100
AcDbEntity
  8
0
  6
Continuous
 62
     7
100
AcDbCircle
 10
-310.0021263439343
 20
-22.99952314533437
 30
0.0
 40
6.139945152313032
  0
CIRCLE
  5
1E1
330
1F
100
AcDbEntity
  8
0
  6
Continuous
 62
     7
100
AcDbCircle
 10
-310.0021263439343
 20
-22.99952314533437
 30
0.0
 40
1.400000000000148
  0
CIRCLE
  5
1E2
330
1F
100
AcDbEntity
  8
0
  6
Continuous
 62
     7
100
AcDbCircle
 10
-388.0021263439343
 20
-84.99952314534056
 30
0.0
 40
6.139945152312919
  0
CIRCLE
  5
1E3
330
1F
100
AcDbEntity
  8
0
  6
Continuous
 62
     7
100
AcDbCircle
 10
-388.0021263439343
 20
-84.99952314534056
 30
0.0
 40
1.399999999999977
  0
CIRCLE
  5
1E4
330
1F
100
AcDbEntity
  8
0
  6
Continuous
 62
     7
100
AcDbCircle
 10
-205.5021263439316
 20
-165.9995231453143
 30
0.0
 40
2.599999999999994
  0
CIRCLE
  5
1E5
330
1F
100
AcDbEntity
  8
0
  6
Continuous
 62
     7
100
AcDbCircle
 10
-90.00212634396632
 20
-185.9995231453277
 30
0.0
 40
2.599999999999909
  0
CIRCLE
  5
1E6
330
1F
100
AcDbEntity
  8
0
  6
Continuous
 62
     7
100
AcDbCircle
 10
-90.00212634394151
 20
-165.9995231453317
 30
0.0
 40
2.600000000000023
  0
CIRCLE
  5
1E7
330
1F
100
AcDbEntity
  8
0
  6
Continuous
 62
     7
100
AcDbCircle
 10
-118.0021263439342
 20
-84.99952314533425
 30
0.0
 40
6.139945152312791
  0
CIRCLE
  5
1E8
330
1F
100
AcDbEntity
  8
0
  6
Continuous
 62
     7
100
AcDbCircle
 10
-118.0021263439342
 20
-84.99952314533425
 30
0.0
 40
1.400000000000006
  0
CIRCLE
  5
1E9
330
1F
100
AcDbEntity
  8
0
  6
Continuous
 62
     7
100
AcDbCircle
 10
-118.0021263439341
 20
-22.99952314533437
 30
0.0
 40
6.139945152312791
  0
CIRCLE
  5
1EA
330
1F
100
AcDbEntity
  8
0
  6
Continuous
 62
     7
100
AcDbCircle
 10
-185.002126343961
 20
-185.9995231453123
 30
0.0
 40
2.599999999999824
  0
CIRCLE
  5
1EB
330
1F
100
AcDbEntity
  8
0
  6
Continuous
 62
     7
100
AcDbCircle
 10
-185.0021263439201
 20
-421.9995231453105
 30
0.0
 40
2.599999999999909
  0
CIRCLE
  5
1EC
330
1F
100
AcDbEntity
  8
0
  6
Continuous
 62
     7
100
AcDbCircle
 10
-90.00212634397911
 20
-421.999523145326
 30
0.0
 40
2.599999999999909
  0
CIRCLE
  5
1ED
330
1F
100
AcDbEntity
  8
0
  6
Continuous
 62
     7
100
AcDbCircle
 10
-90.00212634395442
 20
-0.99952314533215
 30
0.0
 40
2.599999999999881
  0
CIRCLE
  5
1EE
330
1F
100
AcDbEntity
  8
0
  6
Continuous
 62
     7
100
AcDbCircle
 10
-170.5021263439228
 20
-357.4995231453282
 30
0.0
 40
6.139945152312805
  0
CIRCLE
  5
1EF
330
1F
100
AcDbEntity
  8
0
  6
Continuous
 62
     7
100
AcDbCircle
 10
-170.5021263439228
 20
-357.4995231453282
 30
0.0
 40
1.400000000000091
  0
CIRCLE
  5
1F0
330
1F
100
AcDbEntity
  8
0
  6
Continuous
 62
     7
100
AcDbCircle
 10
-104.5021263439228
 20
-250.4995231453283
 30
0.0
 40
6.139945152312876
  0
CIRCLE
  5
1F1
330
1F
100
AcDbEntity
  8
0
  6
Continuous
 62
     7
100
AcDbCircle
 10
-104.5021263439228
 20
-250.4995231453283
 30
0.0
 40
1.400000000000006
  0
CIRCLE
  5
1F2
330
1F
100
AcDbEntity
  8
0
  6
Continuous
 62
     7
100
AcDbCircle
 10
-170.5021263439228
 20
-250.4995231453283
 30
0.0
 40
6.139945152312805
  0
CIRCLE
  5
1F3
330
1F
100
AcDbEntity
  8
0
  6
Continuous
 62
     7
100
AcDbCircle
 10
-170.5021263439228
 20
-250.4995231453283
 30
0.0
 40
1.399999999999977
  0
CIRCLE
  5
1F4
330
1F
100
AcDbEntity
  8
0
  6
Continuous
 62
     7
100
AcDbCircle
 10
-104.5021263439228
 20
-357.4995231453282
 30
0.0
 40
6.139945152312762
  0
CIRCLE
  5
1F5
330
1F
100
AcDbEntity
  8
0
  6
Continuous
 62
     7
100
AcDbCircle
 10
-104.5021263439228
 20
-357.4995231453282
 30
0.0
 40
1.400000000000006
  0
CIRCLE
  5
1F6
330
1F
100
AcDbEntity
  8
0
  6
Continuous
 62
     7
100
AcDbCircle
 10
-286.0021263439723
 20
-357.4995231453282
 30
0.0
 40
1.400000000000091
  0
CIRCLE
  5
1F7
330
1F
100
AcDbEntity
  8
0
  6
Continuous
 62
     7
100
AcDbCircle
 10
-286.0021263439723
 20
-250.4995231453283
 30
0.0
 40
1.400000000000091
  0
CIRCLE
  5
1F8
330
1F
100
AcDbEntity
  8
0
  6
Continuous
 62
     7
100
AcDbCircle
 10
-401.5021263440228
 20
-250.4995231453283
 30
0.0
 40
6.139945152312748
  0
CIRCLE
  5
1F9
330
1F
100
AcDbEntity
  8
0
  6
Continuous
 62
     7
100
AcDbCircle
 10
-401.5021263440228
 20
-357.4995231453282
 30
0.0
 40
6.139945152312691
  0
SPLINE
  5
1FA
330
1F
100
AcDbEntity
  8
0
  6
Continuous
 62
     7
100
AcDbSpline
210
0.0
220
0.0
230
1.0
 70
     8
 71
     3
 72
    15
 73
    11
 74
     9
 42
0.000000001
 43
0.0000000001
 44
0.00000001
 40
0.0
 40
0.0
 40
0.0
 40
0.0
 40
0.6862234756007249
 40
1.372439148582028
 40
2.05864040478932
 40
2.744822823893123
 40
3.430984853021202
 40
4.117128043672746
 40
4.803256815314718
 40
5.489377783820975
 40
5.489377783820975
 40
5.489377783820975
 40
5.489377783820975
 10
-425.5021263439192
 20
-28.16954564370616
 30
0.0
 10
-425.4891003750231
 20
-27.9404379542112
 30
0.0
 10
-425.4630485709459
 20
-27.48222518168888
 30
0.0
 10
-425.2549320190127
 20
-26.82132938131271
 30
0.0
 10
-424.9314683240149
 20
-26.21219414936513
 30
0.0
 10
-424.4928447476301
 20
-25.67846252658791
 30
0.0
 10
-423.959195715844
 20
-25.23976789872003
 30
0.0
 10
-423.3501509108395
 20
-24.91625000589569
 30
0.0
 10
-422.6893499686738
 20
-24.70809720739109
 30
0.0
 10
-422.2312000175747
 20
-24.68204067862899
 30
0.0
 10
-422.0021263439192
 20
-24.66901249552865
 30
0.0
 11
-425.5021263439192
 21
-28.16954564370616
 31
0.0
 11
-425.434874662513
 21
-27.48662553697509
 31
0.0
 11
-425.2357047077087
 21
-26.829949603439
 31
0.0
 11
-424.9122698489481
 21
-26.22475371911236
 31
0.0
 11
-424.477000078072
 21
-25.6942949168545
 31
0.0
 11
-423.9466220672591
 21
-25.25895884218581
 31
0.0
 11
-423.3415183571969
 21
-24.93547471522587
 31
0.0
 11
-422.6849424385892
 21
-24.73627442125189
 31
0.0
 11
-422.0021263439192
 21
-24.66901249552865
 31
0.0
  0
SPLINE
  5
1FB
330
1F
100
AcDbEntity
  8
0
  6
Continuous
 62
     7
100
AcDbSpline
210
0.0
220
0.0
230
1.0
 70
     8
 71
     3
 72
    15
 73
    11
 74
     9
 42
0.000000001
 43
0.0000000001
 44
0.00000001
 40
0.0
 40
0.0
 40
0.0
 40
0.0
 40
1.372142866321197
 40
2.744210418754293
 40
4.116220329249849
 40
5.488199044232962
 40
6.86017775921604
 40
8.232187669711617
 40
9.60425522214474
 40
10.97639808846586
 40
10.97639808846586
 40
10.97639808846586
 40
10.97639808846586
 10
-80.50212634396823
 20
-424.5005892792334
 30
0.0
 10
-80.5281707210743
 20
-424.9587033432782
 30
0.0
 10
-80.58025806016227
 20
-425.8749063250729
 30
0.0
 10
-80.99639318825731
 20
-427.1963564956977
 30
0.0
 10
-81.64318537013185
 20
-428.4142684392852
 30
0.0
 10
-82.52026473978302
 20
-429.4813847495138
 30
0.0
 10
-83.58738105001166
 20
-430.358464119165
 30
0.0
 10
-84.80529299359915
 20
-431.0052563010394
 30
0.0
 10
-86.12674316422402
 20
-431.4213914291342
 30
0.0
 10
-87.04294614601875
 20
-431.4734787682222
 30
0.0
 10
-87.50106021006351
 20
-431.4995231453282
 30
0.0
 11
-80.50212634396823
 21
-424.5005892792334
 31
0.0
 11
-80.63659819795224
 21
-425.8661270380725
 31
0.0
 11
-81.03484679068353
 21
-427.1791264410818
 31
0.0
 11
-81.68157480691735
 21
-428.3891487846814
 31
0.0
 11
-82.55193731608861
 21
-429.4497121732082
 31
0.0
 11
-83.6125007046154
 21
-430.3200746823794
 31
0.0
 11
-84.82252304821507
 21
-430.9668026986131
 31
0.0
 11
-86.13552245122443
 21
-431.3650512913443
 31
0.0
 11
-87.50106021006351
 21
-431.4995231453282
 31
0.0
  0
SPLINE
  5
1FC
330
1F
100
AcDbEntity
  8
0
  6
Continuous
 62
     7
100
AcDbSpline
210
0.0
220
0.0
230
1.0
 70
     8
 71
     3
 72
    15
 73
    11
 74
     9
 42
0.000000001
 43
0.0000000001
 44
0.00000001
 40
0.0
 40
0.0
 40
0.0
 40
0.0
 40
0.6861209685063455
 40
1.372249740148319
 40
2.058392930799838
 40
2.744554959928042
 40
3.430737379031828
 40
4.116938635239026
 40
4.803154308217485
 40
5.489377783797321
 40
5.489377783797321
 40
5.489377783797321
 40
5.489377783797321
 10
-84.00212634396473
 20
-414.6690124955115
 30
0.0
 10
-83.77305267030923
 20
-414.6820406786119
 30
0.0
 10
-83.31490271921007
 20
-414.7080972073738
 30
0.0
 10
-82.65410177704446
 20
-414.9162500058786
 30
0.0
 10
-82.04505697203987
 20
-415.2397678987031
 30
0.0
 10
-81.51140794025378
 20
-415.678462526571
 30
0.0
 10
-81.07278436386916
 20
-416.2121941493484
 30
0.0
 10
-80.74932066887196
 20
-416.8213293812951
 30
0.0
 10
-80.54120411693978
 20
-417.4822251816631
 30
0.0
 10
-80.51515231286153
 20
-417.9404379541773
 30
0.0
 10
-80.50212634396482
 20
-418.1695456436653
 30
0.0
 11
-84.00212634396473
 21
-414.6690124955115
 31
0.0
 11
-83.31931024929463
 21
-414.7362744212348
 31
0.0
 11
-82.66273433068693
 21
-414.9354747152088
 31
0.0
 11
-82.05763062062488
 21
-415.2589588421688
 31
0.0
 11
-81.52725260981187
 21
-415.6942949168376
 31
0.0
 11
-81.0919828389359
 21
-416.2247537190955
 31
0.0
 11
-80.76854798017533
 21
-416.8299496034221
 31
0.0
 11
-80.56937802537097
 21
-417.4866255369552
 31
0.0
 11
-80.50212634396482
 21
-418.1695456436653
 31
0.0
  0
SPLINE
  5
1FD
330
1F
100
AcDbEntity
  8
0
  6
Continuous
 62
     7
100
AcDbSpline
210
0.0
220
0.0
230
1.0
 70
     8
 71
     3
 72
    15
 73
    11
 74
     9
 42
0.000000001
 43
0.0000000001
 44
0.00000001
 40
0.0
 40
0.0
 40
0.0
 40
0.0
 40
0.6862234755798966
 40
1.372439148558296
 40
2.058640404765501
 40
2.74482282386928
 40
3.430984852997426
 40
4.117128043648903
 40
4.803256815290828
 40
5.48937778379705
 40
5.48937778379705
 40
5.48937778379705
 40
5.48937778379705
 10
-80.50212634396362
 20
-394.8295006469768
 30
0.0
 10
-80.51515231286037
 20
-395.0586083364646
 30
0.0
 10
-80.5412041169386
 20
-395.5168211089791
 30
0.0
 10
-80.74932066887084
 20
-396.1777169093471
 30
0.0
 10
-81.072784363868
 20
-396.7868521412939
 30
0.0
 10
-81.51140794025267
 20
-397.3205837640709
 30
0.0
 10
-82.04505697203874
 20
-397.7592783919389
 30
0.0
 10
-82.65410177704338
 20
-398.0827962847633
 30
0.0
 10
-83.31490271920893
 20
-398.2909490832677
 30
0.0
 10
-83.77305267030803
 20
-398.3170056120297
 30
0.0
 10
-84.00212634396351
 20
-398.3300337951301
 30
0.0
 11
-80.50212634396362
 21
-394.8295006469768
 31
0.0
 11
-80.56937802536982
 21
-395.5124207536869
 31
0.0
 11
-80.76854798017416
 21
-396.16909668722
 31
0.0
 11
-81.09198283893475
 21
-396.7742925715465
 31
0.0
 11
-81.52725260981077
 21
-397.3047513738044
 31
0.0
 11
-82.05763062062375
 21
-397.7400874484732
 31
0.0
 11
-82.66273433068582
 21
-398.0635715754331
 31
0.0
 11
-83.31931024929352
 21
-398.2627718694069
 31
0.0
 11
-84.00212634396351
 21
-398.3300337951301
 31
0.0
  0
SPLINE
  5
1FE
330
1F
100
AcDbEntity
  8
0
  6
Continuous
 62
     7
100
AcDbSpline
210
0.0
220
0.0
230
1.0
 70
     8
 71
     3
 72
    15
 73
    11
 74
     9
 42
0.000000001
 43
0.0000000001
 44
0.00000001
 40
0.0
 40
0.0
 40
0.0
 40
0.0
 40
0.6861209685062007
 40
1.372249740148169
 40
2.058392930799819
 40
2.74455495992805
 40
3.430737379031863
 40
4.116938635239071
 40
4.803154308220368
 40
5.48937778382093
 40
5.48937778382093
 40
5.48937778382093
 40
5.48937778382093
 10
-422.0021263439181
 20
-8.33003379514696
 30
0.0
 10
-422.2312000175737
 20
-8.317005612046618
 30
0.0
 10
-422.6893499686726
 20
-8.290949083284497
 30
0.0
 10
-423.3501509108384
 20
-8.082796284779942
 30
0.0
 10
-423.9591957158428
 20
-7.759278391955489
 30
0.0
 10
-424.4928447476291
 20
-7.320583764087383
 30
0.0
 10
-424.9314683240136
 20
-6.78685214131004
 30
0.0
 10
-425.2549320190115
 20
-6.177716909362482
 30
0.0
 10
-425.4630485709449
 20
-5.516821108986423
 30
0.0
 10
-425.4891003750218
 20
-5.05860833646416
 30
0.0
 10
-425.502126343918
 20
-4.829500646969251
 30
0.0
 11
-422.0021263439181
 21
-8.33003379514696
 31
0.0
 11
-422.6849424385881
 21
-8.262771869423718
 31
0.0
 11
-423.3415183571958
 21
-8.063571575449757
 31
0.0
 11
-423.946622067258
 21
-7.7400874484897
 31
0.0
 11
-424.4770000780709
 21
-7.304751373820764
 31
0.0
 11
-424.9122698489469
 21
-6.774292571562798
 31
0.0
 11
-425.2357047077074
 21
-6.16909668723622
 31
0.0
 11
-425.4348746625118
 21
-5.512420753700159
 31
0.0
 11
-425.502126343918
 21
-4.829500646969251
 31
0.0
  0
SPLINE
  5
1FF
330
1F
100
AcDbEntity
  8
0
  6
Continuous
 62
     7
100
AcDbSpline
210
0.0
220
0.0
230
1.0
 70
     8
 71
     3
 72
    15
 73
    11
 74
     9
 42
0.000000001
 43
0.0000000001
 44
0.00000001
 40
0.0
 40
0.0
 40
0.0
 40
0.0
 40
1.372142866321192
 40
2.7442104187543
 40
4.116220329249852
 40
5.488199044232886
 40
6.860177759216035
 40
8.232187669711617
 40
9.604255222144705
 40
10.97639808846591
 40
10.97639808846591
 40
10.97639808846591
 40
10.97639808846591
 10
-418.503192477882
 20
-431.4995231453282
 30
0.0
 10
-418.9613065419268
 20
-431.4734787682223
 30
0.0
 10
-419.8775095237215
 20
-431.4213914291342
 30
0.0
 10
-421.1989596943463
 20
-431.0052563010391
 30
0.0
 10
-422.4168716379339
 20
-430.358464119165
 30
0.0
 10
-423.4839879481625
 20
-429.4813847495137
 30
0.0
 10
-424.3610673178137
 20
-428.4142684392853
 30
0.0
 10
-425.0078594996883
 20
-427.1963564956977
 30
0.0
 10
-425.4239946277834
 20
-425.874906325073
 30
0.0
 10
-425.4760819668713
 20
-424.9587033432783
 30
0.0
 10
-425.5021263439774
 20
-424.5005892792334
 30
0.0
 11
-418.503192477882
 21
-431.4995231453282
 31
0.0
 11
-419.8687302367211
 21
-431.3650512913443
 31
0.0
 11
-421.1817296397305
 21
-430.9668026986131
 31
0.0
 11
-422.3917519833302
 21
-430.3200746823794
 31
0.0
 11
-423.4523153718569
 21
-429.4497121732082
 31
0.0
 11
-424.3226778810282
 21
-428.3891487846814
 31
0.0
 11
-424.969405897262
 21
-427.1791264410818
 31
0.0
 11
-425.3676544899934
 21
-425.8661270380725
 31
0.0
 11
-425.5021263439774
 21
-424.5005892792334
 31
0.0
  0
SPLINE
  5
200
330
1F
100
AcDbEntity
  8
0
  6
Continuous
 62
     7
100
AcDbSpline
210
0.0
220
0.0
230
1.0
 70
     8
 71
     3
 72
    15
 73
    11
 74
     9
 42
0.000000001
 43
0.0000000001
 44
0.00000001
 40
0.0
 40
0.0
 40
0.0
 40
0.0
 40
0.6861209685062439
 40
1.372249740148144
 40
2.058392930799672
 40
2.744554959927784
 40
3.430737379031517
 40
4.116938635238756
 40
4.803154308217227
 40
5.489377783797073
 40
5.489377783797073
 40
5.489377783797073
 40
5.489377783797073
 10
-422.002126343982
 20
-398.3300337951301
 30
0.0
 10
-422.2312000176376
 20
-398.3170056120298
 30
0.0
 10
-422.6893499687366
 20
-398.2909490832677
 30
0.0
 10
-423.3501509109022
 20
-398.0827962847633
 30
0.0
 10
-423.9591957159067
 20
-397.7592783919389
 30
0.0
 10
-424.4928447476929
 20
-397.320583764071
 30
0.0
 10
-424.9314683240775
 20
-396.7868521412938
 30
0.0
 10
-425.2549320190749
 20
-396.1777169093471
 30
0.0
 10
-425.4630485710069
 20
-395.5168211089789
 30
0.0
 10
-425.4891003750853
 20
-395.0586083364648
 30
0.0
 10
-425.502126343982
 20
-394.8295006469768
 30
0.0
 11
-422.002126343982
 21
-398.3300337951301
 31
0.0
 11
-422.6849424386521
 21
-398.2627718694069
 31
0.0
 11
-423.3415183572597
 21
-398.0635715754331
 31
0.0
 11
-423.9466220673218
 21
-397.7400874484732
 31
0.0
 11
-424.4770000781348
 21
-397.3047513738044
 31
0.0
 11
-424.9122698490107
 21
-396.7742925715465
 31
0.0
 11
-425.2357047077713
 21
-396.16909668722
 31
0.0
 11
-425.4348746625758
 21
-395.5124207536869
 31
0.0
 11
-425.502126343982
 21
-394.8295006469768
 31
0.0
  0
SPLINE
  5
201
330
1F
100
AcDbEntity
  8
0
  6
Continuous
 62
     7
100
AcDbSpline
210
0.0
220
0.0
230
1.0
 70
     8
 71
     3
 72
    15
 73
    11
 74
     9
 42
0.000000001
 43
0.0000000001
 44
0.00000001
 40
0.0
 40
0.0
 40
0.0
 40
0.0
 40
0.6862234755702232
 40
1.372439148547301
 40
2.058640404754562
 40
2.744822823858295
 40
3.430984852986401
 40
4.117128043638083
 40
4.803256815280124
 40
5.489377783786328
 40
5.489377783786328
 40
5.489377783786328
 40
5.489377783786328
 10
-425.5021263439807
 20
-418.1695456436542
 30
0.0
 10
-425.4891003750838
 20
-417.9404379541696
 30
0.0
 10
-425.4630485710047
 20
-417.4822251816589
 30
0.0
 10
-425.2549320190733
 20
-416.8213293812947
 30
0.0
 10
-424.9314683240765
 20
-416.2121941493483
 30
0.0
 10
-424.4928447476917
 20
-415.678462526571
 30
0.0
 10
-423.9591957159058
 20
-415.2397678987028
 30
0.0
 10
-423.350150910901
 20
-414.9162500058787
 30
0.0
 10
-422.6893499687354
 20
-414.708097207374
 30
0.0
 10
-422.2312000176364
 20
-414.6820406786118
 30
0.0
 10
-422.0021263439808
 20
-414.6690124955115
 30
0.0
 11
-425.5021263439807
 21
-418.1695456436542
 31
0.0
 11
-425.4348746625745
 21
-417.4866255369538
 31
0.0
 11
-425.2357047077702
 21
-416.8299496034221
 31
0.0
 11
-424.9122698490096
 21
-416.2247537190955
 31
0.0
 11
-424.4770000781337
 21
-415.6942949168376
 31
0.0
 11
-423.9466220673208
 21
-415.2589588421688
 31
0.0
 11
-423.3415183572586
 21
-414.9354747152088
 31
0.0
 11
-422.6849424386508
 21
-414.7362744212348
 31
0.0
 11
-422.0021263439808
 21
-414.6690124955115
 31
0.0
  0
SPLINE
  5
202
330
1F
100
AcDbEntity
  8
0
  6
Continuous
 62
     7
100
AcDbSpline
210
0.0
220
0.0
230
1.0
 70
     8
 71
     3
 72
    15
 73
    11
 74
     9
 42
0.000000001
 43
0.0000000001
 44
0.00000001
 40
0.0
 40
0.0
 40
0.0
 40
0.0
 40
0.6862234755807997
 40
1.37243914855949
 40
2.058640404766769
 40
2.744822823870567
 40
3.43098485299882
 40
4.117128043650404
 40
4.803256815292416
 40
5.489377783798679
 40
5.489377783798679
 40
5.489377783798679
 40
5.489377783798679
 10
-80.50212634394333
 20
-4.82950064699196
 30
0.0
 10
-80.51515231284004
 20
-5.058608336480199
 30
0.0
 10
-80.54120411691821
 20
-5.516821108994867
 30
0.0
 10
-80.74932066885039
 20
-6.17771690936333
 30
0.0
 10
-81.07278436384753
 20
-6.786852141310312
 30
0.0
 10
-81.5114079402322
 20
-7.320583764087644
 30
0.0
 10
-82.04505697201824
 20
-7.759278391955655
 30
0.0
 10
-82.65410177702292
 20
-8.082796284780157
 30
0.0
 10
-83.31490271918848
 20
-8.290949083284753
 30
0.0
 10
-83.77305267028767
 20
-8.317005612046911
 30
0.0
 10
-84.00212634394313
 20
-8.330033795147273
 30
0.0
 11
-80.50212634394333
 21
-4.82950064699196
 31
0.0
 11
-80.56937802534947
 21
-5.512420753703015
 31
0.0
 11
-80.76854798015378
 21
-6.169096687236362
 31
0.0
 11
-81.09198283891432
 21
-6.774292571563059
 31
0.0
 11
-81.52725260979027
 21
-7.304751373821006
 31
0.0
 11
-82.05763062060326
 21
-7.740087448489904
 31
0.0
 11
-82.66273433066537
 21
-8.063571575449956
 31
0.0
 11
-83.31931024927312
 21
-8.262771869423974
 31
0.0
 11
-84.00212634394313
 21
-8.330033795147273
 31
0.0
  0
SPLINE
  5
203
330
1F
100
AcDbEntity
  8
0
  6
Continuous
 62
     7
100
AcDbSpline
210
0.0
220
0.0
230
1.0
 70
     8
 71
     3
 72
    15
 73
    11
 74
     9
 42
0.000000001
 43
0.0000000001
 44
0.00000001
 40
0.0
 40
0.0
 40
0.0
 40
0.0
 40
0.6861209685062617
 40
1.372249740148274
 40
2.058392930799685
 40
2.744554959927799
 40
3.430737379031657
 40
4.116938635238856
 40
4.803154308217439
 40
5.489377783798234
 40
5.489377783798234
 40
5.489377783798234
 40
5.489377783798234
 10
-84.00212634394202
 20
-24.66901249552836
 30
0.0
 10
-83.77305267028655
 20
-24.68204067862871
 30
0.0
 10
-83.31490271918739
 20
-24.70809720739085
 30
0.0
 10
-82.65410177702189
 20
-24.9162500058955
 30
0.0
 10
-82.04505697201719
 20
-25.23976789871973
 30
0.0
 10
-81.51140794023107
 20
-25.67846252658754
 30
0.0
 10
-81.0727843638465
 20
-26.21219414936486
 30
0.0
 10
-80.74932066884918
 20
-26.82132938131171
 30
0.0
 10
-80.54120411691702
 20
-27.48222518168011
 30
0.0
 10
-80.51515231283874
 20
-27.94043795419473
 30
0.0
 10
-80.50212634394202
 20
-28.16954564368297
 30
0.0
 11
-84.00212634394202
 21
-24.66901249552836
 31
0.0
 11
-83.31931024927201
 21
-24.73627442125165
 31
0.0
 11
-82.66273433066426
 21
-24.93547471522567
 31
0.0
 11
-82.05763062060223
 21
-25.25895884218548
 31
0.0
 11
-81.52725260978923
 21
-25.69429491685417
 31
0.0
 11
-81.09198283891321
 21
-26.22475371911213
 31
0.0
 11
-80.76854798015262
 21
-26.82994960343871
 31
0.0
 11
-80.56937802534826
 21
-27.48662553697193
 31
0.0
 11
-80.50212634394202
 21
-28.16954564368297
 31
0.0
  0
SPLINE
  5
204
330
1F
100
AcDbEntity
  8
0
  6
Continuous
 62
     7
100
AcDbSpline
210
0.0
220
0.0
230
1.0
 70
     8
 71
     3
 72
    15
 73
    11
 74
     9
 42
0.000000001
 43
0.0000000001
 44
0.00000001
 40
0.0
 40
0.0
 40
0.0
 40
0.0
 40
1.372142866321213
 40
2.744210418754244
 40
4.116220329249645
 40
5.488199044232658
 40
6.860177759215521
 40
8.232187669710955
 40
9.604255222143857
 40
10.97639808846483
 40
10.97639808846483
 40
10.97639808846483
 40
10.97639808846483
 10
-425.5021263439178
 20
1.501542988561653
 30
0.0
 10
-425.4760819668118
 20
1.959657052606464
 30
0.0
 10
-425.4239946277238
 20
2.875860034401158
 30
0.0
 10
-425.0078594996286
 20
4.197310205025969
 30
0.0
 10
-424.3610673177542
 20
5.415222148613291
 30
0.0
 10
-423.4839879481033
 20
6.482338458841715
 30
0.0
 10
-422.4168716378745
 20
7.359417828492859
 30
0.0
 10
-421.1989596942876
 20
8.006210010367253
 30
0.0
 10
-419.8775095236628
 20
8.422345138462466
 30
0.0
 10
-418.9613065418683
 20
8.474432477550453
 30
0.0
 10
-418.5031924778235
 20
8.50047685465654
 30
0.0
 11
-425.5021263439178
 21
1.501542988561653
 31
0.0
 11
-425.3676544899338
 21
2.867080747400827
 31
0.0
 11
-424.9694058972025
 21
4.180080150410049
 31
0.0
 11
-424.3226778809688
 21
5.390102494009525
 31
0.0
 11
-423.4523153717976
 21
6.450665882536185
 31
0.0
 11
-422.391751983271
 21
7.321028391707323
 31
0.0
 11
-421.1817296396715
 21
7.967756407941096
 31
0.0
 11
-419.8687302366624
 21
8.366005000672477
 31
0.0
 11
-418.5031924778235
 21
8.50047685465654
 31
0.0
  0
SPLINE
  5
205
330
1F
100
AcDbEntity
  8
0
  6
Continuous
 62
     7
100
AcDbSpline
210
0.0
220
0.0
230
1.0
 70
     8
 71
     3
 72
    15
 73
    11
 74
     9
 42
0.000000001
 43
0.0000000001
 44
0.00000001
 40
0.0
 40
0.0
 40
0.0
 40
0.0
 40
1.372142866321153
 40
2.744210418754191
 40
4.116220329249672
 40
5.488199044232691
 40
6.860177759215762
 40
8.23218766971128
 40
9.604255222144396
 40
10.97639808846558
 40
10.97639808846558
 40
10.97639808846558
 40
10.97639808846558
 10
-87.50106021003873
 20
8.500476854675327
 30
0.0
 10
-87.04294614599394
 20
8.474432477569254
 30
0.0
 10
-86.12674316419927
 20
8.422345138481296
 30
0.0
 10
-84.80529299357443
 20
8.0062100103863
 30
0.0
 10
-83.58738104998707
 20
7.359417828511909
 30
0.0
 10
-82.5202647397584
 20
6.482338458860879
 30
0.0
 10
-81.64318537010726
 20
5.415222148632296
 30
0.0
 10
-80.99639318823274
 20
4.19731020504493
 30
0.0
 10
-80.58025806013774
 20
2.875860034420057
 30
0.0
 10
-80.52817072104972
 20
1.959657052625348
 30
0.0
 10
-80.50212634394362
 20
1.501542988580553
 30
0.0
 11
-87.50106021003873
 21
8.500476854675327
 31
0.0
 11
-86.13552245119962
 21
8.366005000691333
 31
0.0
 11
-84.82252304819038
 21
7.967756407960096
 31
0.0
 11
-83.6125007045908
 21
7.32102839172641
 31
0.0
 11
-82.55193731606403
 21
6.450665882555285
 31
0.0
 11
-81.68157480689275
 21
5.390102494028563
 31
0.0
 11
-81.03484679065897
 21
4.180080150428992
 31
0.0
 11
-80.63659819792768
 21
2.867080747419691
 31
0.0
 11
-80.50212634394362
 21
1.501542988580553
 31
0.0
  0
SPLINE
  5
206
330
1F
100
AcDbEntity
  8
0
  6
DASHED
 62
     7
100
AcDbSpline
210
0.0
220
0.0
230
1.0
 70
     8
 71
     3
 72
    15
 73
    11
 74
     9
 42
0.000000001
 43
0.0000000001
 44
0.00000001
 40
0.0
 40
0.0
 40
0.0
 40
0.0
 40
1.372142866321172
 40
2.744210418754183
 40
4.116220329249753
 40
5.488199044232701
 40
6.860177759215745
 40
8.232187669711237
 40
9.604255222144333
 40
10.97639808846559
 40
10.97639808846559
 40
10.97639808846559
 40
10.97639808846559
 10
-87.50106021003418
 20
-937.2995231453338
 30
0.0
 10
-87.04294614598939
 20
-937.3255675224398
 30
0.0
 10
-86.12674316419472
 20
-937.3776548615278
 30
0.0
 10
-84.80529299356976
 20
-937.7937899896224
 30
0.0
 10
-83.5873810499826
 20
-938.4405821714972
 30
0.0
 10
-82.5202647397538
 20
-939.3176615411484
 30
0.0
 10
-81.64318537010267
 20
-940.3847778513764
 30
0.0
 10
-80.99639318822815
 20
-941.6026897949641
 30
0.0
 10
-80.58025806013313
 20
-942.9241399655889
 30
0.0
 10
-80.5281707210451
 20
-943.8403429473835
 30
0.0
 10
-80.50212634393904
 20
-944.2984570114284
 30
0.0
 11
-87.50106021003418
 21
-937.2995231453338
 31
0.0
 11
-86.13552245119504
 21
-937.4339949993176
 31
0.0
 11
-84.82252304818579
 21
-937.8322435920487
 31
0.0
 11
-83.61250070458621
 21
-938.4789716082826
 31
0.0
 11
-82.55193731605945
 21
-939.3493341174536
 31
0.0
 11
-81.68157480688816
 21
-940.4098975059803
 31
0.0
 11
-81.03484679065437
 21
-941.6199198495799
 31
0.0
 11
-80.63659819792308
 21
-942.9329192525892
 31
0.0
 11
-80.50212634393904
 21
-944.2984570114284
 31
0.0
  0
SPLINE
  5
207
330
1F
100
AcDbEntity
  8
0
  6
DASHED
 62
     7
100
AcDbSpline
210
0.0
220
0.0
230
1.0
 70
     8
 71
     3
 72
    15
 73
    11
 74
     9
 42
0.000000001
 43
0.0000000001
 44
0.00000001
 40
0.0
 40
0.0
 40
0.0
 40
0.0
 40
1.372142866320914
 40
2.744210418753969
 40
4.116220329249348
 40
5.488199044232338
 40
6.860177759215247
 40
8.23218766971068
 40
9.604255222143532
 40
10.97639808846459
 40
10.97639808846459
 40
10.97639808846459
 40
10.97639808846459
 10
-425.5021263439505
 20
-944.298457011447
 30
0.0
 10
-425.4760819668444
 20
-943.8403429474023
 30
0.0
 10
-425.4239946277564
 20
-942.924139965608
 30
0.0
 10
-425.0078594996617
 20
-941.6026897949831
 30
0.0
 10
-424.3610673177869
 20
-940.3847778513955
 30
0.0
 10
-423.483987948136
 20
-939.317661541167
 30
0.0
 10
-422.4168716379074
 20
-938.4405821715162
 30
0.0
 10
-421.1989596943204
 20
-937.7937899896414
 30
0.0
 10
-419.8775095236957
 20
-937.3776548615467
 30
0.0
 10
-418.9613065419011
 20
-937.3255675224584
 30
0.0
 10
-418.5031924778563
 20
-937.2995231453522
 30
0.0
 11
-425.5021263439505
 21
-944.298457011447
 31
0.0
 11
-425.3676544899665
 21
-942.9329192526081
 31
0.0
 11
-424.9694058972353
 21
-941.6199198495989
 31
0.0
 11
-424.3226778810016
 21
-940.4098975059994
 31
0.0
 11
-423.4523153718304
 21
-939.3493341174727
 31
0.0
 11
-422.3917519833038
 21
-938.4789716083015
 31
0.0
 11
-421.1817296397044
 21
-937.8322435920677
 31
0.0
 11
-419.8687302366953
 21
-937.4339949993365
 31
0.0
 11
-418.5031924778563
 21
-937.2995231453522
 31
0.0
  0
SPLINE
  5
208
330
1F
100
AcDbEntity
  8
0
  6
DASHED
 62
     7
100
AcDbSpline
210
0.0
220
0.0
230
1.0
 70
     8
 71
     3
 72
    15
 73
    11
 74
     9
 42
0.000000001
 43
0.0000000001
 44
0.00000001
 40
0.0
 40
0.0
 40
0.0
 40
0.0
 40
1.372142866321164
 40
2.744210418754256
 40
4.116220329249889
 40
5.488199044232553
 40
6.860177759215826
 40
8.232187669711433
 40
9.604255222144538
 40
10.97639808846625
 40
10.97639808846625
 40
10.97639808846625
 40
10.97639808846625
 10
-418.5031924779148
 20
-1377.299523145337
 30
0.0
 10
-418.9613065419596
 20
-1377.273478768231
 30
0.0
 10
-419.8775095237544
 20
-1377.221391429143
 30
0.0
 10
-421.1989596943792
 20
-1376.805256301048
 30
0.0
 10
-422.4168716379665
 20
-1376.158464119174
 30
0.0
 10
-423.4839879481954
 20
-1375.281384749523
 30
0.0
 10
-424.3610673178464
 20
-1374.214268439294
 30
0.0
 10
-425.0078594997211
 20
-1372.996356495707
 30
0.0
 10
-425.4239946278161
 20
-1371.674906325082
 30
0.0
 10
-425.4760819669041
 20
-1370.758703343287
 30
0.0
 10
-425.5021263440102
 20
-1370.300589279242
 30
0.0
 11
-418.5031924779148
 21
-1377.299523145337
 31
0.0
 11
-419.8687302367539
 21
-1377.165051291353
 31
0.0
 11
-421.1817296397633
 21
-1376.766802698622
 31
0.0
 11
-422.391751983363
 21
-1376.120074682388
 31
0.0
 11
-423.4523153718897
 21
-1375.249712173218
 31
0.0
 11
-424.322677881061
 21
-1374.189148784691
 31
0.0
 11
-424.9694058972948
 21
-1372.979126441091
 31
0.0
 11
-425.3676544900262
 21
-1371.666127038082
 31
0.0
 11
-425.5021263440102
 21
-1370.300589279242
 31
0.0
  0
SPLINE
  5
209
330
1F
100
AcDbEntity
  8
0
  6
DASHED
 62
     7
100
AcDbSpline
210
0.0
220
0.0
230
1.0
 70
     8
 71
     3
 72
    15
 73
    11
 74
     9
 42
0.000000001
 43
0.0000000001
 44
0.00000001
 40
0.0
 40
0.0
 40
0.0
 40
0.0
 40
1.372142866321705
 40
2.744210418754797
 40
4.116220329250202
 40
5.488199044233598
 40
6.86017775921635
 40
8.232187669711996
 40
9.604255222145088
 40
10.97639808846621
 40
10.97639808846621
 40
10.97639808846621
 40
10.97639808846621
 10
-80.50212634396365
 20
-1370.300589279242
 30
0.0
 10
-80.5281707210697
 20
-1370.758703343287
 30
0.0
 10
-80.58025806015763
 20
-1371.674906325082
 30
0.0
 10
-80.99639318825263
 20
-1372.996356495707
 30
0.0
 10
-81.64318537012747
 20
-1374.214268439295
 30
0.0
 10
-82.52026473977811
 20
-1375.281384749523
 30
0.0
 10
-83.58738105000735
 20
-1376.158464119174
 30
0.0
 10
-84.80529299359446
 20
-1376.805256301049
 30
0.0
 10
-86.12674316421945
 20
-1377.221391429143
 30
0.0
 10
-87.04294614601416
 20
-1377.273478768231
 30
0.0
 10
-87.50106021005894
 20
-1377.299523145337
 30
0.0
 11
-80.50212634396365
 21
-1370.300589279242
 31
0.0
 11
-80.63659819794765
 21
-1371.666127038082
 31
0.0
 11
-81.03484679067893
 21
-1372.979126441091
 31
0.0
 11
-81.68157480691275
 21
-1374.189148784691
 31
0.0
 11
-82.55193731608404
 21
-1375.249712173218
 31
0.0
 11
-83.61250070461082
 21
-1376.120074682388
 31
0.0
 11
-84.82252304821048
 21
-1376.766802698622
 31
0.0
 11
-86.13552245121983
 21
-1377.165051291353
 31
0.0
 11
-87.50106021005894
 21
-1377.299523145337
 31
0.0
  0
SPLINE
  5
20A
330
1F
100
AcDbEntity
  8
0
  6
Continuous
 62
     7
100
AcDbSpline
210
0.0
220
0.0
230
1.0
 70
     8
 71
     3
 72
     9
 73
     5
 74
     3
 42
0.000000001
 43
0.0000000001
 44
0.00000001
 40
0.0
 40
0.0
 40
0.0
 40
0.0
 40
0.7441068210590698
 40
1.488213642152875
 40
1.488213642152875
 40
1.488213642152875
 40
1.488213642152875
 10
452.7354497167634
 20
-394.9658210931161
 30
0.0
 10
452.4786650016836
 20
-395.0397432329303
 30
0.0
 10
451.9650955817258
 20
-395.1875875270775
 30
0.0
 10
451.8352646646331
 20
-395.7060037858857
 30
0.0
 10
451.7703492135167
 20
-395.9652119201464
 30
0.0
 11
452.7354497167634
 21
-394.9658210931161
 31
0.0
 11
452.0610302002562
 21
-395.2802305112884
 31
0.0
 11
451.7703492135167
 21
-395.9652119201464
 31
0.0
  0
SPLINE
  5
20B
330
1F
100
AcDbEntity
  8
0
  6
Continuous
 62
     7
100
AcDbSpline
210
0.0
220
0.0
230
1.0
 70
     8
 71
     3
 72
     9
 73
     5
 74
     3
 42
0.000000001
 43
0.0000000001
 44
0.00000001
 40
0.0
 40
0.0
 40
0.0
 40
0.0
 40
0.7596751139899856
 40
1.519350227988828
 40
1.519350227988828
 40
1.519350227988828
 40
1.519350227988828
 10
453.270349213497
 20
-155.4995231453256
 30
0.0
 10
453.5351906493099
 20
-155.4310312494123
 30
0.0
 10
454.0648735110924
 20
-155.2940474429266
 30
0.0
 10
454.2018573175736
 20
-154.7643645811426
 30
0.0
 10
454.2703492134855
 20
-154.4995231453256
 30
0.0
 11
453.270349213497
 21
-155.4995231453256
 31
0.0
 11
453.9666987543362
 21
-155.195872686175
 31
0.0
 11
454.2703492134855
 21
-154.4995231453256
 31
0.0
  0
SPLINE
  5
20C
330
1F
100
AcDbEntity
  8
0
  6
Continuous
 62
     7
100
AcDbSpline
210
0.0
220
0.0
230
1.0
 70
     8
 71
     3
 72
     9
 73
     5
 74
     3
 42
0.000000001
 43
0.0000000001
 44
0.00000001
 40
0.0
 40
0.0
 40
0.0
 40
0.0
 40
0.7596751139886242
 40
1.519350227987271
 40
1.519350227987271
 40
1.519350227987271
 40
1.519350227987271
 10
453.2703492134988
 20
-196.4995231453331
 30
0.0
 10
453.5351906493112
 20
-196.5680150412465
 30
0.0
 10
454.0648735110926
 20
-196.7049988477328
 30
0.0
 10
454.2018573175737
 20
-197.2346817095162
 30
0.0
 10
454.2703492134855
 20
-197.4995231453331
 30
0.0
 11
453.2703492134988
 21
-196.4995231453331
 31
0.0
 11
453.9666987543364
 21
-196.8031736044838
 31
0.0
 11
454.2703492134855
 21
-197.4995231453331
 31
0.0
  0
SPLINE
  5
20D
330
1F
100
AcDbEntity
  8
0
  6
Continuous
 62
     7
100
AcDbSpline
210
0.0
220
0.0
230
1.0
 70
     8
 71
     3
 72
    15
 73
    11
 74
     9
 42
0.000000001
 43
0.0000000001
 44
0.00000001
 40
0.0
 40
0.0
 40
0.0
 40
0.0
 40
0.0020873737399771
 40
0.0079487607198538
 40
0.0176437273038366
 40
0.0311671980895658
 40
0.0510021128917469
 40
0.073689162886874
 40
0.098090975124554
 40
0.1230694327201192
 40
0.1230694327201192
 40
0.1230694327201192
 40
0.1230694327201192
 10
453.270349213497
 20
-155.4995231453256
 30
0.0
 10
453.2706279259105
 20
-155.5001640577158
 30
0.0
 10
453.2716892900232
 20
-155.5026046562556
 30
0.0
 10
453.2718729215072
 20
-155.5086001093019
 30
0.0
 10
453.2728509475634
 20
-155.518184896387
 30
0.0
 10
453.2735039284479
 20
-155.5325537916194
 30
0.0
 10
453.2743327110264
 20
-155.551203405267
 30
0.0
 10
453.2750674000221
 20
-155.5735043824666
 30
0.0
 10
453.2757638439469
 20
-155.5975153067118
 30
0.0
 10
453.2761661812229
 20
-155.6139707045301
 30
0.0
 10
453.27636970626
 20
-155.6222944834099
 30
0.0
 11
453.270349213497
 21
-155.4995231453256
 31
0.0
 11
453.2711178651593
 21
-155.501463841027
 31
0.0
 11
453.2718843041753
 21
-155.5072749017279
 31
0.0
 11
453.272647423501
 21
-155.5169397878234
 31
0.0
 11
453.2734061160919
 21
-155.5304419597084
 31
0.0
 11
453.2742552765693
 21
-155.5502586892507
 31
0.0
 11
453.275034200852
 21
-155.572932363705
 31
0.0
 11
453.2757399802967
 21
-155.5973239670864
 31
0.0
 11
453.27636970626
 21
-155.6222944834099
 31
0.0
  0
SPLINE
  5
20E
330
1F
100
AcDbEntity
  8
0
  6
Continuous
 62
     7
100
AcDbSpline
210
0.0
220
0.0
230
1.0
 70
     8
 71
     3
 72
     9
 73
     5
 74
     3
 42
0.000000001
 43
0.0000000001
 44
0.00000001
 40
0.0
 40
0.0
 40
0.0
 40
0.0
 40
0.7596751139988381
 40
1.519350227998098
 40
1.519350227998098
 40
1.519350227998098
 40
1.519350227998098
 10
453.2703492134991
 20
-31.99952314533277
 30
0.0
 10
453.5351906493159
 20
-32.06801504124527
 30
0.0
 10
454.0648735111027
 20
-32.20499884772875
 30
0.0
 10
454.2018573175862
 20
-32.73468170951577
 30
0.0
 10
454.2703492134985
 20
-32.99952314533277
 30
0.0
 11
453.2703492134991
 21
-31.99952314533277
 31
0.0
 11
453.9666987543479
 21
-32.30317360448348
 31
0.0
 11
454.2703492134985
 21
-32.99952314533277
 31
0.0
  0
SPLINE
  5
20F
330
1F
100
AcDbEntity
  8
0
  6
Continuous
 62
     7
100
AcDbSpline
210
0.0
220
0.0
230
1.0
 70
     8
 71
     3
 72
     9
 73
     5
 74
     3
 42
0.000000001
 43
0.0000000001
 44
0.00000001
 40
0.0
 40
0.0
 40
0.0
 40
0.0
 40
0.7181064608029868
 40
1.46773079546339
 40
1.46773079546339
 40
1.46773079546339
 40
1.46773079546339
 10
454.2703492134459
 20
-154.6836800809005
 30
0.0
 10
454.1994081303456
 20
-154.9316901157695
 30
0.0
 10
454.0544123275145
 20
-155.4385953984689
 30
0.0
 10
453.539403661274
 20
-155.560191083105
 30
0.0
 10
453.27636970626
 20
-155.6222944834099
 30
0.0
 11
454.2703492134459
 21
-154.6836800809005
 31
0.0
 11
453.968952890946
 21
-155.3354754100168
 31
0.0
 11
453.27636970626
 21
-155.6222944834099
 31
0.0
  0
SPLINE
  5
210
330
1F
100
AcDbEntity
  8
0
  6
Continuous
 62
     7
100
AcDbSpline
210
0.0
220
0.0
230
1.0
 70
     8
 71
     3
 72
     9
 73
     5
 74
     3
 42
0.000000001
 43
0.0000000001
 44
0.00000001
 40
0.0
 40
0.0
 40
0.0
 40
0.0
 40
0.3759521792728251
 40
0.7519043585655515
 40
0.7519043585655515
 40
0.7519043585655515
 40
0.7519043585655515
 10
460.2616230102572
 20
-23.50809836135855
 30
0.0
 10
460.1312094687481
 20
-23.47247251607111
 30
0.0
 10
459.8703823957529
 20
-23.40122081090631
 30
0.0
 10
459.8036936026663
 20
-23.1391899494161
 30
0.0
 10
459.7703492135026
 20
-23.00817451378035
 30
0.0
 11
460.2616230102572
 21
-23.50809836135855
 31
0.0
 11
459.9189169586019
 21
-23.35352602883846
 31
0.0
 11
459.7703492135026
 21
-23.00817451378035
 31
0.0
  0
SPLINE
  5
211
330
1F
100
AcDbEntity
  8
0
  6
Continuous
 62
     7
100
AcDbSpline
210
0.0
220
0.0
230
1.0
 70
     8
 71
     3
 72
     9
 73
     5
 74
     3
 42
0.000000001
 43
0.0000000001
 44
0.00000001
 40
0.0
 40
0.0
 40
0.0
 40
0.0
 40
0.3759521792941262
 40
0.7519043585881713
 40
0.7519043585881713
 40
0.7519043585881713
 40
0.7519043585881713
 10
460.2616230102839
 20
-9.490947929324165
 30
0.0
 10
460.1312094687655
 20
-9.526573774609659
 30
0.0
 10
459.8703823957591
 20
-9.597825479768662
 30
0.0
 10
459.8036936026677
 20
-9.859856341266358
 30
0.0
 10
459.7703492135026
 20
-9.990871776902367
 30
0.0
 11
460.2616230102839
 21
-9.490947929324165
 31
0.0
 11
459.9189169586053
 21
-9.645520261844261
 31
0.0
 11
459.7703492135026
 21
-9.990871776902367
 31
0.0
  0
SPLINE
  5
212
330
1F
100
AcDbEntity
  8
0
  6
Continuous
 62
     7
100
AcDbSpline
210
0.0
220
0.0
230
1.0
 70
     8
 71
     3
 72
     9
 73
     5
 74
     3
 42
0.000000001
 43
0.0000000001
 44
0.00000001
 40
0.0
 40
0.0
 40
0.0
 40
0.0
 40
0.3759521792327876
 40
0.7519043585230132
 40
0.7519043585230132
 40
0.7519043585230132
 40
0.7519043585230132
 10
460.2616230102354
 20
-399.4909479293007
 30
0.0
 10
460.1312094687435
 20
-399.5265737745918
 30
0.0
 10
459.8703823957702
 20
-399.5978254797672
 30
0.0
 10
459.8036936026919
 20
-399.8598563412432
 30
0.0
 10
459.7703492135307
 20
-399.9908717768785
 30
0.0
 11
460.2616230102354
 21
-399.4909479293007
 31
0.0
 11
459.9189169586239
 21
-399.6455202618205
 31
0.0
 11
459.7703492135307
 21
-399.9908717768785
 31
0.0
  0
SPLINE
  5
213
330
1F
100
AcDbEntity
  8
0
  6
Continuous
 62
     7
100
AcDbSpline
210
0.0
220
0.0
230
1.0
 70
     8
 71
     3
 72
     9
 73
     5
 74
     3
 42
0.000000001
 43
0.0000000001
 44
0.00000001
 40
0.0
 40
0.0
 40
0.0
 40
0.0
 40
0.7519043620100098
 40
1.503808721382551
 40
1.503808721382551
 40
1.503808721382551
 40
1.503808721382551
 10
452.7528968070245
 20
-430.2075437077567
 30
0.0
 10
452.4920697227625
 20
-430.1362920170282
 30
0.0
 10
451.9704155651839
 20
-429.993788621233
 30
0.0
 10
451.8370379924501
 20
-429.4697268874166
 30
0.0
 10
451.7703492135806
 20
-429.2076960160807
 30
0.0
 11
452.7528968070245
 21
-430.2075437077567
 31
0.0
 11
452.0674847036881
 21
-429.8983990431522
 31
0.0
 11
451.7703492135806
 21
-429.2076960160807
 31
0.0
  0
SPLINE
  5
214
330
1F
100
AcDbEntity
  8
0
  6
Continuous
 62
     7
100
AcDbSpline
210
0.0
220
0.0
230
1.0
 70
     8
 71
     3
 72
     9
 73
     5
 74
     3
 42
0.000000001
 43
0.0000000001
 44
0.00000001
 40
0.0
 40
0.0
 40
0.0
 40
0.0
 40
0.7441068211016032
 40
1.488213642201801
 40
1.488213642201801
 40
1.488213642201801
 40
1.488213642201801
 10
451.7703492134675
 20
-417.0338343704892
 30
0.0
 10
451.8352646646038
 20
-417.2930425047459
 30
0.0
 10
451.9650955817391
 20
-417.8114587635581
 30
0.0
 10
452.4786650017185
 20
-417.9593030576881
 30
0.0
 10
452.7354497168149
 20
-418.0332251974953
 30
0.0
 11
451.7703492134675
 21
-417.0338343704892
 31
0.0
 11
452.061030200257
 21
-417.7188157793345
 31
0.0
 11
452.7354497168149
 21
-418.0332251974953
 31
0.0
  0
SPLINE
  5
215
330
1F
100
AcDbEntity
  8
0
  6
Continuous
 62
     7
100
AcDbSpline
210
0.0
220
0.0
230
1.0
 70
     8
 71
     3
 72
     9
 73
     5
 74
     3
 42
0.000000001
 43
0.0000000001
 44
0.00000001
 40
0.0
 40
0.0
 40
0.0
 40
0.0
 40
0.3759521792940765
 40
0.7519043585882551
 40
0.7519043585882551
 40
0.7519043585882551
 40
0.7519043585882551
 10
460.2616230103121
 20
-413.5080983613277
 30
0.0
 10
460.1312094687937
 20
-413.4724725160423
 30
0.0
 10
459.8703823957871
 20
-413.4012208108833
 30
0.0
 10
459.8036936026959
 20
-413.1391899493856
 30
0.0
 10
459.7703492135307
 20
-413.0081745137495
 30
0.0
 11
460.2616230103121
 21
-413.5080983613277
 31
0.0
 11
459.9189169586335
 21
-413.3535260288077
 31
0.0
 11
459.7703492135307
 21
-413.0081745137495
 31
0.0
  0
SPLINE
  5
216
330
1F
100
AcDbEntity
  8
0
  6
Continuous
 62
     7
100
AcDbSpline
210
0.0
220
0.0
230
1.0
 70
     8
 71
     3
 72
     9
 73
     5
 74
     3
 42
0.000000001
 43
0.0000000001
 44
0.00000001
 40
0.0
 40
0.0
 40
0.0
 40
0.0
 40
0.7596751044427343
 40
1.519350217842821
 40
1.519350217842821
 40
1.519350217842821
 40
1.519350217842821
 10
451.7703492134687
 20
-391.999523133411
 30
0.0
 10
451.8388411102583
 20
-391.7346817017083
 30
0.0
 10
451.9758249193038
 20
-391.2049988450271
 30
0.0
 10
452.505507777754
 20
-391.0680150406093
 30
0.0
 10
452.7703492134638
 20
-390.9995231453257
 30
0.0
 11
451.7703492134687
 21
-391.999523133411
 31
0.0
 11
452.0739996726188
 21
-391.303173602987
 31
0.0
 11
452.7703492134638
 21
-390.9995231453257
 31
0.0
  0
SPLINE
  5
217
330
1F
100
AcDbEntity
  8
0
  6
Continuous
 62
     7
100
AcDbSpline
210
0.0
220
0.0
230
1.0
 70
     8
 71
     3
 72
     9
 73
     5
 74
     3
 42
0.000000001
 43
0.0000000001
 44
0.00000001
 40
0.0
 40
0.0
 40
0.0
 40
0.0
 40
0.7596751171701905
 40
1.519350282195334
 40
1.519350282195334
 40
1.519350282195334
 40
1.519350282195334
 10
452.7703492134748
 20
-155.4995231453256
 30
0.0
 10
452.5055077770928
 20
-155.5680150445981
 30
0.0
 10
451.9758248974921
 20
-155.7049988621162
 30
0.0
 10
451.8388411047547
 20
-156.2346817511821
 30
0.0
 10
451.7703492135579
 20
-156.4995232089802
 30
0.0
 11
452.7703492134748
 21
-155.4995231453256
 31
0.0
 11
452.0739996726359
 21
-155.8031736124331
 31
0.0
 11
451.7703492135579
 21
-156.4995232089802
 31
0.0
  0
SPLINE
  5
218
330
1F
100
AcDbEntity
  8
0
  6
Continuous
 62
     7
100
AcDbSpline
210
0.0
220
0.0
230
1.0
 70
     8
 71
     3
 72
     9
 73
     5
 74
     3
 42
0.000000001
 43
0.0000000001
 44
0.00000001
 40
0.0
 40
0.0
 40
0.0
 40
0.0
 40
0.7596751110349602
 40
1.519350224844091
 40
1.519350224844091
 40
1.519350224844091
 40
1.519350224844091
 10
451.7703492135154
 20
-30.99952314901756
 30
0.0
 10
451.8388411096906
 20
-31.26436458356222
 30
0.0
 10
451.9758249169498
 20
-31.79404744377185
 30
0.0
 10
452.5055077777029
 20
-31.93103124961524
 30
0.0
 10
452.7703492134863
 20
-31.99952314533277
 30
0.0
 11
451.7703492135154
 21
-30.99952314901756
 31
0.0
 11
452.0739996726436
 21
-31.69587268664273
 31
0.0
 11
452.7703492134863
 21
-31.99952314533277
 31
0.0
  0
SPLINE
  5
219
330
1F
100
AcDbEntity
  8
0
  6
Continuous
 62
     7
100
AcDbSpline
210
0.0
220
0.0
230
1.0
 70
     8
 71
     3
 72
     9
 73
     5
 74
     3
 42
0.000000001
 43
0.0000000001
 44
0.00000001
 40
0.0
 40
0.0
 40
0.0
 40
0.0
 40
0.7441068210897855
 40
1.488213642184619
 40
1.488213642184619
 40
1.488213642184619
 40
1.488213642184619
 10
452.7354497167872
 20
-28.03322519751947
 30
0.0
 10
452.4786650016923
 20
-27.95930305771224
 30
0.0
 10
451.9650955817141
 20
-27.81145876358205
 30
0.0
 10
451.8352646646146
 20
-27.29304250476193
 30
0.0
 10
451.7703492134963
 20
-27.03383437050056
 30
0.0
 11
452.7354497167872
 21
-28.03322519751947
 31
0.0
 11
452.0610302002414
 21
-27.71881577935728
 31
0.0
 11
451.7703492134963
 21
-27.03383437050056
 31
0.0
  0
SPLINE
  5
21A
330
1F
100
AcDbEntity
  8
0
  6
Continuous
 62
     7
100
AcDbSpline
210
0.0
220
0.0
230
1.0
 70
     8
 71
     3
 72
     9
 73
     5
 74
     3
 42
0.000000001
 43
0.0000000001
 44
0.00000001
 40
0.0
 40
0.0
 40
0.0
 40
0.0
 40
0.7596751189731525
 40
1.519350312875312
 40
1.519350312875312
 40
1.519350312875312
 40
1.519350312875312
 10
452.770349213497
 20
-196.4995231453331
 30
0.0
 10
452.5055077767972
 20
-196.4310312441591
 30
0.0
 10
451.9758248871223
 20
-196.294047420397
 30
0.0
 10
451.8388411020977
 20
-195.7643645159177
 30
0.0
 10
451.7703492135372
 20
-195.4995230456937
 30
0.0
 11
452.770349213497
 21
-196.4995231453331
 31
0.0
 11
452.0739996726526
 21
-196.1958726737276
 31
0.0
 11
451.7703492135372
 21
-195.4995230456937
 31
0.0
  0
SPLINE
  5
21B
330
1F
100
AcDbEntity
  8
0
  6
Continuous
 62
     7
100
AcDbSpline
210
0.0
220
0.0
230
1.0
 70
     8
 71
     3
 72
     9
 73
     5
 74
     3
 42
0.000000001
 43
0.0000000001
 44
0.00000001
 40
0.0
 40
0.0
 40
0.0
 40
0.0
 40
0.7441068210820616
 40
1.48821364216838
 40
1.48821364216838
 40
1.48821364216838
 40
1.48821364216838
 10
452.7354497167891
 20
-4.965821093186747
 30
0.0
 10
452.4786650016936
 20
-5.039743232986098
 30
0.0
 10
451.9650955817149
 20
-5.187587527100431
 30
0.0
 10
451.8352646646156
 20
-5.706003785916535
 30
0.0
 10
451.770349213497
 20
-5.965211920175761
 30
0.0
 11
452.7354497167891
 21
-4.965821093186747
 31
0.0
 11
452.0610302002422
 21
-5.280230511328337
 31
0.0
 11
451.770349213497
 21
-5.965211920175761
 31
0.0
  0
SPLINE
  5
21C
330
1F
100
AcDbEntity
  8
0
  6
Continuous
 62
     7
100
AcDbSpline
210
0.0
220
0.0
230
1.0
 70
     8
 71
     3
 72
     9
 73
     5
 74
     3
 42
0.000000001
 43
0.0000000001
 44
0.00000001
 40
0.0
 40
0.0
 40
0.0
 40
0.0
 40
0.7596751139982966
 40
1.519350227979997
 40
1.519350227979997
 40
1.519350227979997
 40
1.519350227979997
 10
454.2703492134615
 20
-389.9995231453257
 30
0.0
 10
454.2018573175502
 20
-390.2643645811426
 30
0.0
 10
454.0648735110708
 20
-390.7940474429238
 30
0.0
 10
453.5351906492929
 20
-390.9310312494117
 30
0.0
 10
453.2703492134834
 20
-390.9995231453257
 30
0.0
 11
454.2703492134615
 21
-389.9995231453257
 31
0.0
 11
453.9666987543136
 21
-390.6958726861752
 31
0.0
 11
453.2703492134834
 21
-390.9995231453257
 31
0.0
  0
ARC
  5
21D
330
1F
100
AcDbEntity
  8
1
  6
Continuous
 62
     7
100
AcDbCircle
 10
527.2703492134738
 20
-171.9995231453314
 30
0.0
 40
1.0
100
AcDbArc
 50
270.0
 51
0.00000000000651
  0
ARC
  5
21E
330
1F
100
AcDbEntity
  8
1
  6
Continuous
 62
     7
100
AcDbCircle
 10
527.2703492135437
 20
-179.9995231453273
 30
0.0
 40
1.0
100
AcDbArc
 50
359.9999999992151
 51
90.0
  0
ARC
  5
21F
330
1F
100
AcDbEntity
  8
1
  6
Continuous
 62
     7
100
AcDbCircle
 10
527.2703492135133
 20
5.00047685462195
 30
0.0
 40
1.0
100
AcDbArc
 50
359.9999999993291
 51
90.0
  0
ARC
  5
220
330
1F
100
AcDbEntity
  8
1
  6
Continuous
 62
     7
100
AcDbCircle
 10
527.2703492134962
 20
-427.9995231452871
 30
0.0
 40
1.0
100
AcDbArc
 50
270.0
 51
0.00000000000651
  0
SOLID
  5
221
330
1F
100
AcDbEntity
  8
1
 62
     2
100
AcDbTrace
 10
508.637542687503
 20
-446.4314188839713
 30
0.0
 11
503.6927015045985
 21
-452.5913794448393
 31
0.0
 12
482.7703492138319
 22
-430.7315002884955
 32
0.0
 13
482.7703492138319
 23
-430.7315002884955
 33
0.0
  0
LEADER
  5
222
330
1F
100
AcDbEntity
  8
1
  6
Continuous
 62
     2
100
AcDbLeader
  3
Standard
 71
     0
 76
     3
 10
482.7703492138319
 20
-430.7315002884955
 30
0.0
 10
553.2270307032551
 20
-487.2898332188939
 30
0.0
 10
891.9786045105541
 20
-487.2898332188939
 30
0.0
  0
SOLID
  5
223
330
1F
100
AcDbEntity
  8
1
 62
     2
100
AcDbTrace
 10
500.8035885960348
 20
36.03028089733603
 30
0.0
 11
507.7200326946718
 21
32.2146067149632
 31
0.0
 12
489.7703492135645
 22
7.85463945232175
 32
0.0
 13
489.7703492135645
 23
7.85463945232175
 33
0.0
  0
LEADER
  5
224
330
1F
100
AcDbEntity
  8
1
  6
Continuous
 62
     2
100
AcDbLeader
  3
Standard
 71
     0
 76
     3
 10
489.7703492135645
 20
7.85463945232175
 30
0.0
 10
514.1960574051881
 20
52.12965802110702
 30
0.0
 10
886.873756923502
 20
51.49986483599043
 30
0.0
  0
MTEXT
  5
225
330
1F
100
AcDbEntity
  8
1
 62
     7
100
AcDbMText
 10
707.5736388022947
 20
-2296.441269833681
 30
0.0
 40
45.0
 41
0.0
 71
     5
 72
     1
  1
1:10
  7
CONVERTER_11
 73
     1
 44
1.32052821128451
  0
MTEXT
  5
226
330
1F
100
AcDbEntity
  8
1
 62
     7
100
AcDbMText
 10
-663.1893680851317
 20
-2322.047664041243
 30
0.0
 40
30.0
 41
0.0
 71
     4
 72
     1
  1
ROTELLA
  7
CONVERTER_11
 73
     1
 44
1.32052821128451
  0
MTEXT
  5
227
330
1F
100
AcDbEntity
  8
1
 62
     7
100
AcDbMText
 10
-663.1893680851317
 20
-2272.047664041243
 30
0.0
 40
30.0
 41
0.0
 71
     4
 72
     1
  1
16/09/11
  7
CONVERTER_11
 73
     1
 44
1.32052821128451
  0
MTEXT
  5
228
330
1F
100
AcDbEntity
  8
1
 62
     7
100
AcDbMText
 10
-416.4263611977049
 20
-2272.047664041242
 30
0.0
 40
45.0
 41
0.0
 71
     4
 72
     1
  1
TM 3444 T3\PTRIPLE BOX
  7
CONVERTER_11
 73
     1
 44
0.90036014405762
  0
MTEXT
  5
229
330
1F
100
AcDbEntity
  8
1
 62
     7
100
AcDbMText
 10
559.1757754249601
 20
-442.576881387429
 30
0.0
 40
45.0
 41
0.0
 71
     4
 72
     1
  1
Cable entry mark
  7
CONVERTER_11
 73
     1
 44
0.90036014405762
  0
MTEXT
  5
22A
330
1F
100
AcDbEntity
  8
1
 62
     7
100
AcDbMText
 10
-361.3887169328242
 20
-1633.654527806756
 30
0.0
 40
45.0
 41
0.0
 71
     4
 72
     1
  1
Fixing holes
  7
CONVERTER_11
 73
     1
 44
0.90036014405762
  0
MTEXT
  5
22B
330
1F
100
AcDbEntity
  8
1
 62
     7
100
AcDbMText
 10
557.27577542496
 20
90.62311861257096
 30
0.0
 40
45.0
 41
0.0
 71
     4
 72
     1
  1
Cable entry mark
  7
CONVERTER_11
 73
     1
 44
0.90036014405762
  0
DIMENSION
  5
237
330
1F
100
AcDbEntity
  8
1
100
AcDbDimension
  2
*D3
 10
114.7650233370529
 20
-962.2995231453453
 30
0.0
 11
79.76502333705287
 21
-1157.299523145339
 31
0.0
 70
    33
  1
<>
 71
     5
 42
-1.0
 53
90.0
  3
ME10_DIM_10
100
AcDbAlignedDimension
 13
-83.76044632677213
 23
-1352.299523145333
 33
0.0
 14
-83.76044632677213
 24
-962.2995231453456
 34
0.0
  0
DIMENSION
  5
245
330
1F
100
AcDbEntity
  8
1
100
AcDbDimension
  2
*D4
 10
452.2244266643471
 20
-592.8015816055987
 30
0.0
 11
380.0256260139067
 21
-558.0018445375781
 31
0.0
 70
    33
  1
<>
 71
     5
 42
-1.0
 53
0.15903195033933
  3
ME10_DIM_11
100
AcDbAlignedDimension
 13
526.7703492134989
 23
-428.9995231452871
 33
0.0
 14
451.7703492135806
 24
-429.2076960160807
 34
0.0
  0
DIMENSION
  5
250
330
1F
100
AcDbEntity
  8
1
100
AcDbDimension
  2
*D5
 10
-80.5021263439682
 20
-594.7095125551566
 30
0.0
 11
-253.0021263439728
 21
-559.7095125551566
 31
0.0
 70
    33
  1
<>
 71
     5
 42
-1.0
 53
0.00013888888889
  3
ME10_DIM_12
100
AcDbAlignedDimension
 13
-425.5021263439774
 23
-424.5005892792334
 33
0.0
 14
-80.50212634396823
 24
-424.5005892792334
 34
0.0
  0
DIMENSION
  5
25B
330
1F
100
AcDbEntity
  8
1
100
AcDbDimension
  2
*D6
 10
114.7650233370529
 20
8.50047685467538
 30
0.0
 11
79.76502333705287
 21
-211.4995231453264
 31
0.0
 70
    33
  1
<>
 71
     5
 42
-1.0
 53
89.99999999999679
  3
ME10_DIM_13
100
AcDbAlignedDimension
 13
-87.50106021006351
 23
-431.4995231453282
 33
0.0
 14
-87.50106021003873
 24
8.50047685467533
 34
0.0
  0
DIMENSION
  5
266
330
1F
100
AcDbEntity
  8
1
100
AcDbDimension
  2
*D7
 10
-417.0021263439583
 20
-1549.71810855606
 30
0.0
 11
-253.0021263439522
 21
-1514.71810855606
 31
0.0
 70
    33
  1
<>
 71
     5
 42
-1.0
 53
0.00013888888889
  3
ME10_DIM_14
100
AcDbAlignedDimension
 13
-89.00212634394603
 23
-1358.912157856669
 33
0.0
 14
-417.0021263439583
 24
-1358.912157856669
 34
0.0
  0
INSERT
  5
26D
330
1F
100
AcDbEntity
  8
1
100
AcDbBlockReference
  2
*D8
 10
0.0
 20
0.0
 30
0.0
  0
ENDSEC
  0
SECTION
  2
OBJECTS
  0
DICTIONARY
  5
C
330
0
100
AcDbDictionary
281
     1
  3
ACAD_GROUP
350
D
  3
ACAD_LAYOUT
350
1A
  3
ACAD_MATERIAL
350
3B
  3
ACAD_MLEADERSTYLE
350
270
  3
ACAD_MLINESTYLE
350
17
  3
ACAD_PLOTSETTINGS
350
19
  3
ACAD_PLOTSTYLENAME
350
E
  3
ACAD_VISUALSTYLE
350
2A
  3
AcDbVariableDictionary
350
26E
  0
DICTIONARY
  5
D
102
{ACAD_REACTORS
330
C
102
}
330
C
100
AcDbDictionary
281
     1
  0
DICTIONARY
  5
1A
102
{ACAD_REACTORS
330
C
102
}
330
C
100
AcDbDictionary
281
     1
  3
Layout1
350
1E
  3
Layout2
350
26
  3
Model
350
22
  0
DICTIONARY
  5
3B
102
{ACAD_REACTORS
330
C
102
}
330
C
100
AcDbDictionary
281
     1
  3
ByBlock
350
3D
  3
ByLayer
350
3C
  3
Global
350
3E
  0
DICTIONARY
  5
270
102
{ACAD_REACTORS
330
C
102
}
330
C
100
AcDbDictionary
281
     1
  0
DICTIONARY
  5
17
102
{ACAD_REACTORS
330
C
102
}
330
C
100
AcDbDictionary
281
     1
  3
Standard
350
18
  0
DICTIONARY
  5
19
102
{ACAD_REACTORS
330
C
102
}
330
C
100
AcDbDictionary
281
     1
  0
ACDBDICTIONARYWDFLT
  5
E
102
{ACAD_REACTORS
330
C
102
}
330
C
100
AcDbDictionary
281
     1
  3
Normal
350
F
100
AcDbDictionaryWithDefault
340
F
  0
DICTIONARY
  5
2A
102
{ACAD_REACTORS
330
C
102
}
330
C
100
AcDbDictionary
281
     1
  3
2dWireframe
350
2F
  3
3D Hidden
350
31
  3
3dWireframe
350
30
  3
Basic
350
32
  3
Brighten
350
36
  3
ColorChange
350
3A
  3
Conceptual
350
34
  3
Dim
350
35
  3
Facepattern
350
39
  3
Flat
350
2B
  3
FlatWithEdges
350
2C
  3
Gouraud
350
2D
  3
GouraudWithEdges
350
2E
  3
Linepattern
350
38
  3
Realistic
350
33
  3
Thicken
350
37
  0
DICTIONARY
  5
26E
102
{ACAD_REACTORS
330
C
102
}
330
C
100
AcDbDictionary
281
     1
  3
DIMASSOC
350
271
  3
HIDETEXT
350
272
  0
LAYOUT
  5
1E
102
{ACAD_REACTORS
330
1A
102
}
330
1A
100
AcDbPlotSettings
  1

  2
none_device
  4

  6

 40
0.0
 41
0.0
 42
0.0
 43
0.0
 44
0.0
 45
0.0
 46
0.0
 47
0.0
 48
0.0
 49
0.0
140
0.0
141
0.0
142
1.0
143
1.0
 70
   688
 72
     0
 73
     0
 74
     5
  7

 75
    16
147
1.0
148
0.0
149
0.0
100
AcDbLayout
  1
Layout1
 70
     1
 71
     1
 10
0.0
 20
0.0
 11
12.0
 21
9.0
 12
0.0
 22
0.0
 32
0.0
 14
1.00000000000000E+20
 24
1.00000000000000E+20
 34
1.00000000000000E+20
 15
-1.00000000000000E+20
 25
-1.00000000000000E+20
 35
-1.00000000000000E+20
146
0.0
 13
0.0
 23
0.0
 33
0.0
 16
1.0
 26
0.0
 36
0.0
 17
0.0
 27
1.0
 37
0.0
 76
     0
330
1B
  0
LAYOUT
  5
26
102
{ACAD_REACTORS
330
1A
102
}
330
1A
100
AcDbPlotSettings
  1

  2
none_device
  4

  6

 40
0.0
 41
0.0
 42
0.0
 43
0.0
 44
0.0
 45
0.0
 46
0.0
 47
0.0
 48
0.0
 49
0.0
140
0.0
141
0.0
142
1.0
143
1.0
 70
   688
 72
     0
 73
     0
 74
     5
  7

 75
    16
147
1.0
148
0.0
149
0.0
100
AcDbLayout
  1
Layout2
 70
     1
 71
     2
 10
0.0
 20
0.0
 11
0.0
 21
0.0
 12
0.0
 22
0.0
 32
0.0
 14
0.0
 24
0.0
 34
0.0
 15
0.0
 25
0.0
 35
0.0
146
0.0
 13
0.0
 23
0.0
 33
0.0
 16
1.0
 26
0.0
 36
0.0
 17
0.0
 27
1.0
 37
0.0
 76
     0
330
23
  0
LAYOUT
  5
22
102
{ACAD_REACTORS
330
1A
102
}
330
1A
100
AcDbPlotSettings
  1

  2
none_device
  4

  6

 40
0.0
 41
0.0
 42
0.0
 43
0.0
 44
0.0
 45
0.0
 46
0.0
 47
0.0
 48
0.0
 49
0.0
140
0.0
141
0.0
142
1.0
143
1.0
 70
  1712
 72
     0
 73
     0
 74
     0
  7

 75
     0
147
1.0
148
0.0
149
0.0
100
AcDbLayout
  1
Model
 70
     1
 71
     0
 10
0.0
 20
0.0
 11
12.0
 21
9.0
 12
0.0
 22
0.0
 32
0.0
 14
-989.1893680851335
 24
-2397.047664041242
 34
0.0
 15
1110.810631914868
 25
572.952335958759
 35
0.0
146
0.0
 13
0.0
 23
0.0
 33
0.0
 16
1.0
 26
0.0
 36
0.0
 17
0.0
 27
1.0
 37
0.0
 76
     0
330
1F
331
29
  0
MATERIAL
  5
3D
102
{ACAD_REACTORS
330
3B
102
}
102
{ACAD_XDICTIONARY
360
295
102
}
330
3B
100
AcDbMaterial
  1
ByBlock
  0
MATERIAL
  5
3C
102
{ACAD_REACTORS
330
3B
102
}
102
{ACAD_XDICTIONARY
360
293
102
}
330
3B
100
AcDbMaterial
  1
ByLayer
  0
MATERIAL
  5
3E
102
{ACAD_REACTORS
330
3B
102
}
102
{ACAD_XDICTIONARY
360
297
102
}
330
3B
100
AcDbMaterial
  1
Global
  0
MLINESTYLE
  5
18
102
{ACAD_REACTORS
330
17
102
}
330
17
100
AcDbMlineStyle
  2
Standard
 70
     0
  3

 62
   256
 51
90.0
 52
90.0
 71
     2
 49
0.5
 62
   256
  6
BYLAYER
 49
-0.5
 62
   256
  6
BYLAYER
  0
ACDBPLACEHOLDER
  5
F
102
{ACAD_REACTORS
330
E
102
}
330
E
  0
VISUALSTYLE
  5
2F
102
{ACAD_REACTORS
330
2A
102
}
102
{ACAD_XDICTIONARY
360
27B
102
}
330
2A
100
AcDbVisualStyle
  2
2dWireframe
 70
     4
 71
     0
 72
     2
 73
     0
 90
        0
 40
-0.6
 41
-30.0
 62
     5
 63
     7
 74
     1
 91
        4
 64
     7
 65
   257
 75
     1
175
     1
 42
1.0
 92
        0
 66
   257
 43
1.0
 76
     1
 77
     6
 78
     2
 67
     7
 79
     5
170
     0
171
     0
290
     0
174
     0
 93
        1
 44
0.0
173
     0
291
     0
 45
0.0
1001
ACAD
1000
AcDbSavedByObjectVersion
1070
     0
  0
VISUALSTYLE
  5
31
102
{ACAD_REACTORS
330
2A
102
}
102
{ACAD_XDICTIONARY
360
27F
102
}
330
2A
100
AcDbVisualStyle
  2
3D Hidden
 70
     6
 71
     1
 72
     2
 73
     2
 90
        0
 40
-0.6
 41
-30.0
 62
     5
 63
     7
 74
     2
 91
        2
 64
     7
 65
   257
 75
     2
175
     1
 42
40.0
 92
        0
 66
   257
 43
1.0
 76
     1
 77
     6
 78
     2
 67
     7
 79
     3
170
     0
171
     0
290
     0
174
     0
 93
        1
 44
0.0
173
     0
291
     0
 45
0.0
1001
ACAD
1000
AcDbSavedByObjectVersion
1070
     0
  0
VISUALSTYLE
  5
30
102
{ACAD_REACTORS
330
2A
102
}
102
{ACAD_XDICTIONARY
360
27D
102
}
330
2A
100
AcDbVisualStyle
  2
3dWireframe
 70
     5
 71
     0
 72
     2
 73
     0
 90
        0
 40
-0.6
 41
-30.0
 62
     5
 63
     7
 74
     1
 91
        4
 64
     7
 65
   257
 75
     1
175
     1
 42
1.0
 92
        0
 66
   257
 43
1.0
 76
     1
 77
     6
 78
     2
 67
     7
 79
     5
170
     0
171
     0
290
     0
174
     0
 93
        1
 44
0.0
173
     0
291
     0
 45
0.0
1001
ACAD
1000
AcDbSavedByObjectVersion
1070
     0
  0
VISUALSTYLE
  5
32
102
{ACAD_REACTORS
330
2A
102
}
102
{ACAD_XDICTIONARY
360
281
102
}
330
2A
100
AcDbVisualStyle
  2
Basic
 70
     7
 71
     1
 72
     0
 73
     1
 90
        0
 40
-0.6
 41
-30.0
 62
     5
 63
     7
 74
     0
 91
        4
 64
     7
 65
   257
 75
     1
175
     1
 42
1.0
 92
        8
 66
     7
 43
1.0
 76
     1
 77
     6
 78
     2
 67
     7
 79
     5
170
     0
171
     0
290
     0
174
     0
 93
        1
 44
0.0
173
     0
291
     1
 45
0.0
1001
ACAD
1000
AcDbSavedByObjectVersion
1070
     0
  0
VISUALSTYLE
  5
36
102
{ACAD_REACTORS
330
2A
102
}
102
{ACAD_XDICTIONARY
360
289
102
}
330
2A
100
AcDbVisualStyle
  2
Brighten
 70
    12
 71
     2
 72
     2
 73
     0
 90
        0
 40
-0.6
 41
-30.0
 62
     5
 63
     7
 74
     1
 91
        4
 64
     7
 65
   257
 75
     1
175
     1
 42
1.0
 92
        8
 66
     7
 43
1.0
 76
     1
 77
     6
 78
     2
 67
     7
 79
     5
170
     0
171
     0
290
     0
174
     0
 93
        1
 44
50.0
173
     0
291
     1
 45
0.0
1001
ACAD
1000
AcDbSavedByObjectVersion
1070
     0
  0
VISUALSTYLE
  5
3A
102
{ACAD_REACTORS
330
2A
102
}
102
{ACAD_XDICTIONARY
360
291
102
}
330
2A
100
AcDbVisualStyle
  2
ColorChange
 70
    16
 71
     2
 72
     2
 73
     3
 90
        0
 40
-0.6
 41
-30.0
 62
     5
 63
     8
 74
     1
 91
        4
 64
     7
 65
   257
 75
     1
175
     1
 42
1.0
 92
        8
 66
     8
 43
1.0
 76
     1
 77
     6
 78
     2
 67
     7
 79
     5
170
     0
171
     0
290
     0
174
     0
 93
        1
 44
0.0
173
     0
291
     1
 45
0.0
1001
ACAD
1000
AcDbSavedByObjectVersion
1070
     0
  0
VISUALSTYLE
  5
34
102
{ACAD_REACTORS
330
2A
102
}
102
{ACAD_XDICTIONARY
360
285
102
}
330
2A
100
AcDbVisualStyle
  2
Conceptual
 70
     9
 71
     3
 72
     2
 73
     0
 90
        0
 40
-0.6
 41
-30.0
 62
     5
 63
     7
 74
     2
 91
        2
 64
     7
 65
   257
 75
     1
175
     1
 42
40.0
 92
        8
 66
     7
 43
1.0
 76
     1
 77
     6
 78
     2
 67
     7
 79
     3
170
     0
171
     0
290
     0
174
     0
 93
        1
 44
0.0
173
     0
291
     0
 45
0.0
1001
ACAD
1000
AcDbSavedByObjectVersion
1070
     0
  0
VISUALSTYLE
  5
35
102
{ACAD_REACTORS
330
2A
102
}
102
{ACAD_XDICTIONARY
360
287
102
}
330
2A
100
AcDbVisualStyle
  2
Dim
 70
    11
 71
     2
 72
     2
 73
     0
 90
        0
 40
-0.6
 41
-30.0
 62
     5
 63
     7
 74
     1
 91
        4
 64
     7
 65
   257
 75
     1
175
     1
 42
1.0
 92
        8
 66
     7
 43
1.0
 76
     1
 77
     6
 78
     2
 67
     7
 79
     5
170
     0
171
     0
290
     0
174
     0
 93
        1
 44
-50.0
173
     0
291
     1
 45
0.0
1001
ACAD
1000
AcDbSavedByObjectVersion
1070
     0
  0
VISUALSTYLE
  5
39
102
{ACAD_REACTORS
330
2A
102
}
102
{ACAD_XDICTIONARY
360
28F
102
}
330
2A
100
AcDbVisualStyle
  2
Facepattern
 70
    15
 71
     2
 72
     2
 73
     0
 90
        0
 40
-0.6
 41
-30.0
 62
     5
 63
     7
 74
     1
 91
        4
 64
     7
 65
   257
 75
     1
175
     1
 42
1.0
 92
        8
 66
     7
 43
1.0
 76
     1
 77
     6
 78
     2
 67
     7
 79
     5
170
     0
171
     0
290
     0
174
     0
 93
        1
 44
0.0
173
     0
291
     1
 45
0.0
1001
ACAD
1000
AcDbSavedByObjectVersion
1070
     0
  0
VISUALSTYLE
  5
2B
102
{ACAD_REACTORS
330
2A
102
}
102
{ACAD_XDICTIONARY
360
273
102
}
330
2A
100
AcDbVisualStyle
  2
Flat
 70
     0
 71
     2
 72
     1
 73
     1
 90
        2
 40
-0.6
 41
30.0
 62
     5
 63
     7
 74
     0
 91
        4
 64
     7
 65
   257
 75
     1
175
     1
 42
1.0
 92
        8
 66
     7
 43
1.0
 76
     1
 77
     6
 78
     2
 67
     7
 79
     5
170
     0
171
     0
290
     0
174
     0
 93
       13
 44
0.0
173
     0
291
     1
 45
0.0
1001
ACAD
1000
AcDbSavedByObjectVersion
1070
     0
  0
VISUALSTYLE
  5
2C
102
{ACAD_REACTORS
330
2A
102
}
102
{ACAD_XDICTIONARY
360
275
102
}
330
2A
100
AcDbVisualStyle
  2
FlatWithEdges
 70
     1
 71
     2
 72
     1
 73
     1
 90
        2
 40
-0.6
 41
30.0
 62
     5
 63
     7
 74
     1
 91
        4
 64
     7
 65
   257
 75
     1
175
     1
 42
1.0
 92
        0
 66
   257
 43
1.0
 76
     1
 77
     6
 78
     2
 67
     7
 79
     5
170
     0
171
     0
290
     0
174
     0
 93
       13
 44
0.0
173
     0
291
     1
 45
0.0
1001
ACAD
1000
AcDbSavedByObjectVersion
1070
     0
  0
VISUALSTYLE
  5
2D
102
{ACAD_REACTORS
330
2A
102
}
102
{ACAD_XDICTIONARY
360
277
102
}
330
2A
100
AcDbVisualStyle
  2
Gouraud
 70
     2
 71
     2
 72
     2
 73
     1
 90
        2
 40
-0.6
 41
30.0
 62
     5
 63
     7
 74
     0
 91
        4
 64
     7
 65
   257
 75
     1
175
     1
 42
1.0
 92
        0
 66
     7
 43
1.0
 76
     1
 77
     6
 78
     2
 67
     7
 79
     5
170
     0
171
     0
290
     0
174
     0
 93
       13
 44
0.0
173
     0
291
     1
 45
0.0
1001
ACAD
1000
AcDbSavedByObjectVersion
1070
     0
  0
VISUALSTYLE
  5
2E
102
{ACAD_REACTORS
330
2A
102
}
102
{ACAD_XDICTIONARY
360
279
102
}
330
2A
100
AcDbVisualStyle
  2
GouraudWithEdges
 70
     3
 71
     2
 72
     2
 73
     1
 90
        2
 40
-0.6
 41
30.0
 62
     5
 63
     7
 74
     1
 91
        4
 64
     7
 65
   257
 75
     1
175
     1
 42
1.0
 92
        0
 66
   257
 43
1.0
 76
     1
 77
     6
 78
     2
 67
     7
 79
     5
170
     0
171
     0
290
     0
174
     0
 93
       13
 44
0.0
173
     0
291
     1
 45
0.0
1001
ACAD
1000
AcDbSavedByObjectVersion
1070
     0
  0
VISUALSTYLE
  5
38
102
{ACAD_REACTORS
330
2A
102
}
102
{ACAD_XDICTIONARY
360
28D
102
}
330
2A
100
AcDbVisualStyle
  2
Linepattern
 70
    14
 71
     2
 72
     2
 73
     0
 90
        0
 40
-0.6
 41
-30.0
 62
     5
 63
     7
 74
     1
 91
        4
 64
     7
 65
   257
 75
     7
175
     7
 42
1.0
 92
        8
 66
     7
 43
1.0
 76
     1
 77
     6
 78
     2
 67
     7
 79
     5
170
     0
171
     0
290
     0
174
     0
 93
        1
 44
0.0
173
     0
291
     1
 45
0.0
1001
ACAD
1000
AcDbSavedByObjectVersion
1070
     0
  0
VISUALSTYLE
  5
33
102
{ACAD_REACTORS
330
2A
102
}
102
{ACAD_XDICTIONARY
360
283
102
}
330
2A
100
AcDbVisualStyle
  2
Realistic
 70
     8
 71
     2
 72
     2
 73
     0
 90
        0
 40
-0.6
 41
-30.0
 62
     5
 63
     7
 74
     1
 91
        0
 64
     7
 65
   257
 75
     1
175
     1
 42
1.0
 92
        8
 66
     8
 43
1.0
 76
     1
 77
     6
 78
     2
 67
     7
 79
     5
170
     0
171
     0
290
     0
174
     0
 93
       13
 44
0.0
173
     0
291
     0
 45
0.0
1001
ACAD
1000
AcDbSavedByObjectVersion
1070
     0
  0
VISUALSTYLE
  5
37
102
{ACAD_REACTORS
330
2A
102
}
102
{ACAD_XDICTIONARY
360
28B
102
}
330
2A
100
AcDbVisualStyle
  2
Thicken
 70
    13
 71
     2
 72
     2
 73
     0
 90
        0
 40
-0.6
 41
-30.0
 62
     5
 63
     7
 74
     1
 91
        4
 64
     7
 65
   257
 75
     1
175
     1
 42
1.0
 92
       12
 66
     7
 43
1.0
 76
     1
 77
     6
 78
     2
 67
     7
 79
     5
170
     0
171
     0
290
     0
174
     0
 93
        1
 44
0.0
173
     0
291
     1
 45
0.0
1001
ACAD
1000
AcDbSavedByObjectVersion
1070
     0
  0
DICTIONARYVAR
  5
271
102
{ACAD_REACTORS
330
26E
102
}
330
26E
100
DictionaryVariables
280
     0
  1
2
  0
DICTIONARYVAR
  5
272
102
{ACAD_REACTORS
330
26E
102
}
330
26E
100
DictionaryVariables
280
     0
  1
1
  0
DICTIONARY
  5
295
330
3D
100
AcDbDictionary
280
     1
281
     1
  3
ACAD_XREC_ROUNDTRIP
360
296
  0
DICTIONARY
  5
293
330
3C
100
AcDbDictionary
280
     1
281
     1
  3
ACAD_XREC_ROUNDTRIP
360
294
  0
DICTIONARY
  5
297
330
3E
100
AcDbDictionary
280
     1
281
     1
  3
ACAD_XREC_ROUNDTRIP
360
298
  0
DICTIONARY
  5
27B
330
2F
100
AcDbDictionary
280
     1
281
     1
  3
ACAD_XREC_ROUNDTRIP
360
27C
  0
DICTIONARY
  5
27F
330
31
100
AcDbDictionary
280
     1
281
     1
  3
ACAD_XREC_ROUNDTRIP
360
280
  0
DICTIONARY
  5
27D
330
30
100
AcDbDictionary
280
     1
281
     1
  3
ACAD_XREC_ROUNDTRIP
360
27E
  0
DICTIONARY
  5
281
330
32
100
AcDbDictionary
280
     1
281
     1
  3
ACAD_XREC_ROUNDTRIP
360
282
  0
DICTIONARY
  5
289
330
36
100
AcDbDictionary
280
     1
281
     1
  3
ACAD_XREC_ROUNDTRIP
360
28A
  0
DICTIONARY
  5
291
330
3A
100
AcDbDictionary
280
     1
281
     1
  3
ACAD_XREC_ROUNDTRIP
360
292
  0
DICTIONARY
  5
285
330
34
100
AcDbDictionary
280
     1
281
     1
  3
ACAD_XREC_ROUNDTRIP
360
286
  0
DICTIONARY
  5
287
330
35
100
AcDbDictionary
280
     1
281
     1
  3
ACAD_XREC_ROUNDTRIP
360
288
  0
DICTIONARY
  5
28F
330
39
100
AcDbDictionary
280
     1
281
     1
  3
ACAD_XREC_ROUNDTRIP
360
290
  0
DICTIONARY
  5
273
330
2B
100
AcDbDictionary
280
     1
281
     1
  3
ACAD_XREC_ROUNDTRIP
360
274
  0
DICTIONARY
  5
275
330
2C
100
AcDbDictionary
280
     1
281
     1
  3
ACAD_XREC_ROUNDTRIP
360
276
  0
DICTIONARY
  5
277
330
2D
100
AcDbDictionary
280
     1
281
     1
  3
ACAD_XREC_ROUNDTRIP
360
278
  0
DICTIONARY
  5
279
330
2E
100
AcDbDictionary
280
     1
281
     1
  3
ACAD_XREC_ROUNDTRIP
360
27A
  0
DICTIONARY
  5
28D
330
38
100
AcDbDictionary
280
     1
281
     1
  3
ACAD_XREC_ROUNDTRIP
360
28E
  0
DICTIONARY
  5
283
330
33
100
AcDbDictionary
280
     1
281
     1
  3
ACAD_XREC_ROUNDTRIP
360
284
  0
DICTIONARY
  5
28B
330
37
100
AcDbDictionary
280
     1
281
     1
  3
ACAD_XREC_ROUNDTRIP
360
28C
  0
XRECORD
  5
296
102
{ACAD_REACTORS
330
295
102
}
330
295
100
AcDbXrecord
280
     1
102
MATERIAL
148
0.0
149
0.0
149
0.0
 93
        0
 94
      127
282
     0
 72
     1
 77
     1
171
     1
175
     1
179
     1
273
     0
  0
XRECORD
  5
294
102
{ACAD_REACTORS
330
293
102
}
330
293
100
AcDbXrecord
280
     1
102
MATERIAL
148
0.0
149
0.0
149
0.0
 93
        0
 94
      127
282
     0
 72
     1
 77
     1
171
     1
175
     1
179
     1
273
     0
  0
XRECORD
  5
298
102
{ACAD_REACTORS
330
297
102
}
330
297
100
AcDbXrecord
280
     1
102
MATERIAL
148
0.0
149
0.0
149
0.0
 93
        0
 94
      127
282
     0
 72
     1
 77
     1
171
     1
175
     1
179
     1
273
     0
  0
XRECORD
  5
27C
102
{ACAD_REACTORS
330
27B
102
}
330
27B
100
AcDbXrecord
280
     1
102
RTVSPropertyOp0
 70
     1
102
RTVSPropertyOp1
 70
     1
102
RTVSPropertyOp2
 70
     1
102
RTVSPropertyOp3
 70
     1
102
RTVSPropertyOp4
 70
     1
102
RTVSPropertyOp5
 70
     1
102
RTVSPropertyOp6
 70
     1
102
RTVSPropertyOp7
 70
     1
102
RTVSPropertyOp8
 70
     1
102
RTVSPropertyOp9
 70
     1
102
RTVSPropertyOp10
 70
     1
102
RTVSPropertyOp11
 70
     1
102
RTVSPropertyOp12
 70
     1
102
RTVSPropertyOp13
 70
     1
102
RTVSPropertyOp14
 70
     1
102
RTVSPropertyOp15
 70
     1
102
RTVSPropertyOp16
 70
     1
102
RTVSPropertyOp17
 70
     1
102
RTVSPropertyOp18
 70
     1
102
RTVSPropertyOp19
 70
     1
102
RTVSPropertyOp20
 70
     1
102
RTVSPropertyOp21
 70
     1
102
RTVSPropertyOp22
 70
     1
102
RTVSPropertyOp23
 70
     1
102
RTVSPropertyOp24
 70
     1
102
RTVSPropertyOp25
 70
     1
102
RTVSPropertyOp26
 70
     1
102
RTVSPropertyOp27
 70
     1
102
RTVSPropertyOp28
 70
     1
102
RTVSPropertyOp29
 70
     1
102
RTVSPropertyOp30
 70
     1
102
RTVSPropertyOp31
 70
     1
102
RTVSPropertyOp32
 70
     1
  0
XRECORD
  5
280
102
{ACAD_REACTORS
330
27F
102
}
330
27F
100
AcDbXrecord
280
     1
102
RTVSPropertyOp0
 70
     1
102
RTVSPropertyOp1
 70
     1
102
RTVSPropertyOp2
 70
     1
102
RTVSPropertyOp3
 70
     1
102
RTVSPropertyOp4
 70
     1
102
RTVSPropertyOp5
 70
     1
102
RTVSPropertyOp6
 70
     1
102
RTVSPropertyOp7
 70
     1
102
RTVSPropertyOp8
 70
     1
102
RTVSPropertyOp9
 70
     1
102
RTVSPropertyOp10
 70
     1
102
RTVSPropertyOp11
 70
     1
102
RTVSPropertyOp12
 70
     1
102
RTVSPropertyOp13
 70
     1
102
RTVSPropertyOp14
 70
     1
102
RTVSPropertyOp15
 70
     1
102
RTVSPropertyOp16
 70
     1
102
RTVSPropertyOp17
 70
     1
102
RTVSPropertyOp18
 70
     1
102
RTVSPropertyOp19
 70
     1
102
RTVSPropertyOp20
 70
     1
102
RTVSPropertyOp21
 70
     1
102
RTVSPropertyOp22
 70
     1
102
RTVSPropertyOp23
 70
     1
102
RTVSPropertyOp24
 70
     1
102
RTVSPropertyOp25
 70
     1
102
RTVSPropertyOp26
 70
     1
102
RTVSPropertyOp27
 70
     1
102
RTVSPropertyOp28
 70
     1
102
RTVSPropertyOp29
 70
     1
102
RTVSPropertyOp30
 70
     1
102
RTVSPropertyOp31
 70
     1
102
RTVSPropertyOp32
 70
     1
  0
XRECORD
  5
27E
102
{ACAD_REACTORS
330
27D
102
}
330
27D
100
AcDbXrecord
280
     1
102
RTVSPropertyOp0
 70
     1
102
RTVSPropertyOp1
 70
     1
102
RTVSPropertyOp2
 70
     1
102
RTVSPropertyOp3
 70
     1
102
RTVSPropertyOp4
 70
     1
102
RTVSPropertyOp5
 70
     1
102
RTVSPropertyOp6
 70
     1
102
RTVSPropertyOp7
 70
     1
102
RTVSPropertyOp8
 70
     1
102
RTVSPropertyOp9
 70
     1
102
RTVSPropertyOp10
 70
     1
102
RTVSPropertyOp11
 70
     1
102
RTVSPropertyOp12
 70
     1
102
RTVSPropertyOp13
 70
     1
102
RTVSPropertyOp14
 70
     1
102
RTVSPropertyOp15
 70
     1
102
RTVSPropertyOp16
 70
     1
102
RTVSPropertyOp17
 70
     1
102
RTVSPropertyOp18
 70
     1
102
RTVSPropertyOp19
 70
     1
102
RTVSPropertyOp20
 70
     1
102
RTVSPropertyOp21
 70
     1
102
RTVSPropertyOp22
 70
     1
102
RTVSPropertyOp23
 70
     1
102
RTVSPropertyOp24
 70
     1
102
RTVSPropertyOp25
 70
     1
102
RTVSPropertyOp26
 70
     1
102
RTVSPropertyOp27
 70
     1
102
RTVSPropertyOp28
 70
     1
102
RTVSPropertyOp29
 70
     1
102
RTVSPropertyOp30
 70
     1
102
RTVSPropertyOp31
 70
     1
102
RTVSPropertyOp32
 70
     1
  0
XRECORD
  5
282
102
{ACAD_REACTORS
330
281
102
}
330
281
100
AcDbXrecord
280
     1
102
RTVSPropertyOp0
 70
     1
102
RTVSPropertyOp1
 70
     1
102
RTVSPropertyOp2
 70
     1
102
RTVSPropertyOp3
 70
     1
102
RTVSPropertyOp4
 70
     1
102
RTVSPropertyOp5
 70
     1
102
RTVSPropertyOp6
 70
     1
102
RTVSPropertyOp7
 70
     1
102
RTVSPropertyOp8
 70
     1
102
RTVSPropertyOp9
 70
     1
102
RTVSPropertyOp10
 70
     1
102
RTVSPropertyOp11
 70
     1
102
RTVSPropertyOp12
 70
     1
102
RTVSPropertyOp13
 70
     1
102
RTVSPropertyOp14
 70
     1
102
RTVSPropertyOp15
 70
     1
102
RTVSPropertyOp16
 70
     1
102
RTVSPropertyOp17
 70
     1
102
RTVSPropertyOp18
 70
     1
102
RTVSPropertyOp19
 70
     1
102
RTVSPropertyOp20
 70
     1
102
RTVSPropertyOp21
 70
     1
102
RTVSPropertyOp22
 70
     1
102
RTVSPropertyOp23
 70
     1
102
RTVSPropertyOp24
 70
     1
102
RTVSPropertyOp25
 70
     1
102
RTVSPropertyOp26
 70
     1
102
RTVSPropertyOp27
 70
     1
102
RTVSPropertyOp28
 70
     1
102
RTVSPropertyOp29
 70
     1
102
RTVSPropertyOp30
 70
     1
102
RTVSPropertyOp31
 70
     1
102
RTVSPropertyOp32
 70
     1
  0
XRECORD
  5
28A
102
{ACAD_REACTORS
330
289
102
}
330
289
100
AcDbXrecord
280
     1
102
RTVSPropertyOp0
 70
     1
102
RTVSPropertyOp1
 70
     1
102
RTVSPropertyOp2
 70
     1
102
RTVSPropertyOp3
 70
     1
102
RTVSPropertyOp4
 70
     1
102
RTVSPropertyOp5
 70
     1
102
RTVSPropertyOp6
 70
     1
102
RTVSPropertyOp7
 70
     1
102
RTVSPropertyOp8
 70
     1
102
RTVSPropertyOp9
 70
     1
102
RTVSPropertyOp10
 70
     1
102
RTVSPropertyOp11
 70
     1
102
RTVSPropertyOp12
 70
     1
102
RTVSPropertyOp13
 70
     1
102
RTVSPropertyOp14
 70
     1
102
RTVSPropertyOp15
 70
     1
102
RTVSPropertyOp16
 70
     1
102
RTVSPropertyOp17
 70
     1
102
RTVSPropertyOp18
 70
     1
102
RTVSPropertyOp19
 70
     1
102
RTVSPropertyOp20
 70
     1
102
RTVSPropertyOp21
 70
     1
102
RTVSPropertyOp22
 70
     1
102
RTVSPropertyOp23
 70
     1
102
RTVSPropertyOp24
 70
     1
102
RTVSPropertyOp25
 70
     1
102
RTVSPropertyOp26
 70
     1
102
RTVSPropertyOp27
 70
     1
102
RTVSPropertyOp28
 70
     1
102
RTVSPropertyOp29
 70
     1
102
RTVSPropertyOp30
 70
     1
102
RTVSPropertyOp31
 70
     1
102
RTVSPropertyOp32
 70
     1
  0
XRECORD
  5
292
102
{ACAD_REACTORS
330
291
102
}
330
291
100
AcDbXrecord
280
     1
102
RTVSPropertyOp0
 70
     1
102
RTVSPropertyOp1
 70
     1
102
RTVSPropertyOp2
 70
     1
102
RTVSPropertyOp3
 70
     1
102
RTVSPropertyOp4
 70
     1
102
RTVSPropertyOp5
 70
     1
102
RTVSPropertyOp6
 70
     1
102
RTVSPropertyOp7
 70
     1
102
RTVSPropertyOp8
 70
     1
102
RTVSPropertyOp9
 70
     1
102
RTVSPropertyOp10
 70
     1
102
RTVSPropertyOp11
 70
     1
102
RTVSPropertyOp12
 70
     1
102
RTVSPropertyOp13
 70
     1
102
RTVSPropertyOp14
 70
     1
102
RTVSPropertyOp15
 70
     1
102
RTVSPropertyOp16
 70
     1
102
RTVSPropertyOp17
 70
     1
102
RTVSPropertyOp18
 70
     1
102
RTVSPropertyOp19
 70
     1
102
RTVSPropertyOp20
 70
     1
102
RTVSPropertyOp21
 70
     1
102
RTVSPropertyOp22
 70
     1
102
RTVSPropertyOp23
 70
     1
102
RTVSPropertyOp24
 70
     1
102
RTVSPropertyOp25
 70
     1
102
RTVSPropertyOp26
 70
     1
102
RTVSPropertyOp27
 70
     1
102
RTVSPropertyOp28
 70
     1
102
RTVSPropertyOp29
 70
     1
102
RTVSPropertyOp30
 70
     1
102
RTVSPropertyOp31
 70
     1
102
RTVSPropertyOp32
 70
     1
  0
XRECORD
  5
286
102
{ACAD_REACTORS
330
285
102
}
330
285
100
AcDbXrecord
280
     1
102
RTVSPropertyOp0
 70
     1
102
RTVSPropertyOp1
 70
     1
102
RTVSPropertyOp2
 70
     1
102
RTVSPropertyOp3
 70
     1
102
RTVSPropertyOp4
 70
     1
102
RTVSPropertyOp5
 70
     1
102
RTVSPropertyOp6
 70
     1
102
RTVSPropertyOp7
 70
     1
102
RTVSPropertyOp8
 70
     1
102
RTVSPropertyOp9
 70
     1
102
RTVSPropertyOp10
 70
     1
102
RTVSPropertyOp11
 70
     1
102
RTVSPropertyOp12
 70
     1
102
RTVSPropertyOp13
 70
     1
102
RTVSPropertyOp14
 70
     1
102
RTVSPropertyOp15
 70
     1
102
RTVSPropertyOp16
 70
     1
102
RTVSPropertyOp17
 70
     1
102
RTVSPropertyOp18
 70
     1
102
RTVSPropertyOp19
 70
     1
102
RTVSPropertyOp20
 70
     1
102
RTVSPropertyOp21
 70
     1
102
RTVSPropertyOp22
 70
     1
102
RTVSPropertyOp23
 70
     1
102
RTVSPropertyOp24
 70
     1
102
RTVSPropertyOp25
 70
     1
102
RTVSPropertyOp26
 70
     1
102
RTVSPropertyOp27
 70
     1
102
RTVSPropertyOp28
 70
     1
102
RTVSPropertyOp29
 70
     1
102
RTVSPropertyOp30
 70
     1
102
RTVSPropertyOp31
 70
     1
102
RTVSPropertyOp32
 70
     1
  0
XRECORD
  5
288
102
{ACAD_REACTORS
330
287
102
}
330
287
100
AcDbXrecord
280
     1
102
RTVSPropertyOp0
 70
     1
102
RTVSPropertyOp1
 70
     1
102
RTVSPropertyOp2
 70
     1
102
RTVSPropertyOp3
 70
     1
102
RTVSPropertyOp4
 70
     1
102
RTVSPropertyOp5
 70
     1
102
RTVSPropertyOp6
 70
     1
102
RTVSPropertyOp7
 70
     1
102
RTVSPropertyOp8
 70
     1
102
RTVSPropertyOp9
 70
     1
102
RTVSPropertyOp10
 70
     1
102
RTVSPropertyOp11
 70
     1
102
RTVSPropertyOp12
 70
     1
102
RTVSPropertyOp13
 70
     1
102
RTVSPropertyOp14
 70
     1
102
RTVSPropertyOp15
 70
     1
102
RTVSPropertyOp16
 70
     1
102
RTVSPropertyOp17
 70
     1
102
RTVSPropertyOp18
 70
     1
102
RTVSPropertyOp19
 70
     1
102
RTVSPropertyOp20
 70
     1
102
RTVSPropertyOp21
 70
     1
102
RTVSPropertyOp22
 70
     1
102
RTVSPropertyOp23
 70
     1
102
RTVSPropertyOp24
 70
     1
102
RTVSPropertyOp25
 70
     1
102
RTVSPropertyOp26
 70
     1
102
RTVSPropertyOp27
 70
     1
102
RTVSPropertyOp28
 70
     1
102
RTVSPropertyOp29
 70
     1
102
RTVSPropertyOp30
 70
     1
102
RTVSPropertyOp31
 70
     1
102
RTVSPropertyOp32
 70
     1
  0
XRECORD
  5
290
102
{ACAD_REACTORS
330
28F
102
}
330
28F
100
AcDbXrecord
280
     1
102
RTVSPropertyOp0
 70
     1
102
RTVSPropertyOp1
 70
     1
102
RTVSPropertyOp2
 70
     1
102
RTVSPropertyOp3
 70
     1
102
RTVSPropertyOp4
 70
     1
102
RTVSPropertyOp5
 70
     1
102
RTVSPropertyOp6
 70
     1
102
RTVSPropertyOp7
 70
     1
102
RTVSPropertyOp8
 70
     1
102
RTVSPropertyOp9
 70
     1
102
RTVSPropertyOp10
 70
     1
102
RTVSPropertyOp11
 70
     1
102
RTVSPropertyOp12
 70
     1
102
RTVSPropertyOp13
 70
     1
102
RTVSPropertyOp14
 70
     1
102
RTVSPropertyOp15
 70
     1
102
RTVSPropertyOp16
 70
     1
102
RTVSPropertyOp17
 70
     1
102
RTVSPropertyOp18
 70
     1
102
RTVSPropertyOp19
 70
     1
102
RTVSPropertyOp20
 70
     1
102
RTVSPropertyOp21
 70
     1
102
RTVSPropertyOp22
 70
     1
102
RTVSPropertyOp23
 70
     1
102
RTVSPropertyOp24
 70
     1
102
RTVSPropertyOp25
 70
     1
102
RTVSPropertyOp26
 70
     1
102
RTVSPropertyOp27
 70
     1
102
RTVSPropertyOp28
 70
     1
102
RTVSPropertyOp29
 70
     1
102
RTVSPropertyOp30
 70
     1
102
RTVSPropertyOp31
 70
     1
102
RTVSPropertyOp32
 70
     1
  0
XRECORD
  5
274
102
{ACAD_REACTORS
330
273
102
}
330
273
100
AcDbXrecord
280
     1
102
RTVSPropertyOp0
 70
     1
102
RTVSPropertyOp1
 70
     1
102
RTVSPropertyOp2
 70
     1
102
RTVSPropertyOp3
 70
     1
102
RTVSPropertyOp4
 70
     1
102
RTVSPropertyOp5
 70
     1
102
RTVSPropertyOp6
 70
     1
102
RTVSPropertyOp7
 70
     1
102
RTVSPropertyOp8
 70
     1
102
RTVSPropertyOp9
 70
     1
102
RTVSPropertyOp10
 70
     1
102
RTVSPropertyOp11
 70
     1
102
RTVSPropertyOp12
 70
     1
102
RTVSPropertyOp13
 70
     1
102
RTVSPropertyOp14
 70
     1
102
RTVSPropertyOp15
 70
     1
102
RTVSPropertyOp16
 70
     1
102
RTVSPropertyOp17
 70
     1
102
RTVSPropertyOp18
 70
     1
102
RTVSPropertyOp19
 70
     1
102
RTVSPropertyOp20
 70
     1
102
RTVSPropertyOp21
 70
     1
102
RTVSPropertyOp22
 70
     1
102
RTVSPropertyOp23
 70
     1
102
RTVSPropertyOp24
 70
     1
102
RTVSPropertyOp25
 70
     1
102
RTVSPropertyOp26
 70
     1
102
RTVSPropertyOp27
 70
     1
102
RTVSPropertyOp28
 70
     1
102
RTVSPropertyOp29
 70
     1
102
RTVSPropertyOp30
 70
     1
102
RTVSPropertyOp31
 70
     1
102
RTVSPropertyOp32
 70
     1
  0
XRECORD
  5
276
102
{ACAD_REACTORS
330
275
102
}
330
275
100
AcDbXrecord
280
     1
102
RTVSPropertyOp0
 70
     1
102
RTVSPropertyOp1
 70
     1
102
RTVSPropertyOp2
 70
     1
102
RTVSPropertyOp3
 70
     1
102
RTVSPropertyOp4
 70
     1
102
RTVSPropertyOp5
 70
     1
102
RTVSPropertyOp6
 70
     1
102
RTVSPropertyOp7
 70
     1
102
RTVSPropertyOp8
 70
     1
102
RTVSPropertyOp9
 70
     1
102
RTVSPropertyOp10
 70
     1
102
RTVSPropertyOp11
 70
     1
102
RTVSPropertyOp12
 70
     1
102
RTVSPropertyOp13
 70
     1
102
RTVSPropertyOp14
 70
     1
102
RTVSPropertyOp15
 70
     1
102
RTVSPropertyOp16
 70
     1
102
RTVSPropertyOp17
 70
     1
102
RTVSPropertyOp18
 70
     1
102
RTVSPropertyOp19
 70
     1
102
RTVSPropertyOp20
 70
     1
102
RTVSPropertyOp21
 70
     1
102
RTVSPropertyOp22
 70
     1
102
RTVSPropertyOp23
 70
     1
102
RTVSPropertyOp24
 70
     1
102
RTVSPropertyOp25
 70
     1
102
RTVSPropertyOp26
 70
     1
102
RTVSPropertyOp27
 70
     1
102
RTVSPropertyOp28
 70
     1
102
RTVSPropertyOp29
 70
     1
102
RTVSPropertyOp30
 70
     1
102
RTVSPropertyOp31
 70
     1
102
RTVSPropertyOp32
 70
     1
  0
XRECORD
  5
278
102
{ACAD_REACTORS
330
277
102
}
330
277
100
AcDbXrecord
280
     1
102
RTVSPropertyOp0
 70
     1
102
RTVSPropertyOp1
 70
     1
102
RTVSPropertyOp2
 70
     1
102
RTVSPropertyOp3
 70
     1
102
RTVSPropertyOp4
 70
     1
102
RTVSPropertyOp5
 70
     1
102
RTVSPropertyOp6
 70
     1
102
RTVSPropertyOp7
 70
     1
102
RTVSPropertyOp8
 70
     1
102
RTVSPropertyOp9
 70
     1
102
RTVSPropertyOp10
 70
     1
102
RTVSPropertyOp11
 70
     1
102
RTVSPropertyOp12
 70
     1
102
RTVSPropertyOp13
 70
     1
102
RTVSPropertyOp14
 70
     1
102
RTVSPropertyOp15
 70
     1
102
RTVSPropertyOp16
 70
     1
102
RTVSPropertyOp17
 70
     1
102
RTVSPropertyOp18
 70
     1
102
RTVSPropertyOp19
 70
     1
102
RTVSPropertyOp20
 70
     1
102
RTVSPropertyOp21
 70
     1
102
RTVSPropertyOp22
 70
     1
102
RTVSPropertyOp23
 70
     1
102
RTVSPropertyOp24
 70
     1
102
RTVSPropertyOp25
 70
     1
102
RTVSPropertyOp26
 70
     1
102
RTVSPropertyOp27
 70
     1
102
RTVSPropertyOp28
 70
     1
102
RTVSPropertyOp29
 70
     1
102
RTVSPropertyOp30
 70
     1
102
RTVSPropertyOp31
 70
     1
102
RTVSPropertyOp32
 70
     1
  0
XRECORD
  5
27A
102
{ACAD_REACTORS
330
279
102
}
330
279
100
AcDbXrecord
280
     1
102
RTVSPropertyOp0
 70
     1
102
RTVSPropertyOp1
 70
     1
102
RTVSPropertyOp2
 70
     1
102
RTVSPropertyOp3
 70
     1
102
RTVSPropertyOp4
 70
     1
102
RTVSPropertyOp5
 70
     1
102
RTVSPropertyOp6
 70
     1
102
RTVSPropertyOp7
 70
     1
102
RTVSPropertyOp8
 70
     1
102
RTVSPropertyOp9
 70
     1
102
RTVSPropertyOp10
 70
     1
102
RTVSPropertyOp11
 70
     1
102
RTVSPropertyOp12
 70
     1
102
RTVSPropertyOp13
 70
     1
102
RTVSPropertyOp14
 70
     1
102
RTVSPropertyOp15
 70
     1
102
RTVSPropertyOp16
 70
     1
102
RTVSPropertyOp17
 70
     1
102
RTVSPropertyOp18
 70
     1
102
RTVSPropertyOp19
 70
     1
102
RTVSPropertyOp20
 70
     1
102
RTVSPropertyOp21
 70
     1
102
RTVSPropertyOp22
 70
     1
102
RTVSPropertyOp23
 70
     1
102
RTVSPropertyOp24
 70
     1
102
RTVSPropertyOp25
 70
     1
102
RTVSPropertyOp26
 70
     1
102
RTVSPropertyOp27
 70
     1
102
RTVSPropertyOp28
 70
     1
102
RTVSPropertyOp29
 70
     1
102
RTVSPropertyOp30
 70
     1
102
RTVSPropertyOp31
 70
     1
102
RTVSPropertyOp32
 70
     1
  0
XRECORD
  5
28E
102
{ACAD_REACTORS
330
28D
102
}
330
28D
100
AcDbXrecord
280
     1
102
RTVSPropertyOp0
 70
     1
102
RTVSPropertyOp1
 70
     1
102
RTVSPropertyOp2
 70
     1
102
RTVSPropertyOp3
 70
     1
102
RTVSPropertyOp4
 70
     1
102
RTVSPropertyOp5
 70
     1
102
RTVSPropertyOp6
 70
     1
102
RTVSPropertyOp7
 70
     1
102
RTVSPropertyOp8
 70
     1
102
RTVSPropertyOp9
 70
     1
102
RTVSPropertyOp10
 70
     1
102
RTVSPropertyOp11
 70
     1
102
RTVSPropertyOp12
 70
     1
102
RTVSPropertyOp13
 70
     1
102
RTVSPropertyOp14
 70
     1
102
RTVSPropertyOp15
 70
     1
102
RTVSPropertyOp16
 70
     1
102
RTVSPropertyOp17
 70
     1
102
RTVSPropertyOp18
 70
     1
102
RTVSPropertyOp19
 70
     1
102
RTVSPropertyOp20
 70
     1
102
RTVSPropertyOp21
 70
     1
102
RTVSPropertyOp22
 70
     1
102
RTVSPropertyOp23
 70
     1
102
RTVSPropertyOp24
 70
     1
102
RTVSPropertyOp25
 70
     1
102
RTVSPropertyOp26
 70
     1
102
RTVSPropertyOp27
 70
     1
102
RTVSPropertyOp28
 70
     1
102
RTVSPropertyOp29
 70
     1
102
RTVSPropertyOp30
 70
     1
102
RTVSPropertyOp31
 70
     1
102
RTVSPropertyOp32
 70
     1
  0
XRECORD
  5
284
102
{ACAD_REACTORS
330
283
102
}
330
283
100
AcDbXrecord
280
     1
102
RTVSPropertyOp0
 70
     1
102
RTVSPropertyOp1
 70
     1
102
RTVSPropertyOp2
 70
     1
102
RTVSPropertyOp3
 70
     1
102
RTVSPropertyOp4
 70
     1
102
RTVSPropertyOp5
 70
     1
102
RTVSPropertyOp6
 70
     1
102
RTVSPropertyOp7
 70
     1
102
RTVSPropertyOp8
 70
     1
102
RTVSPropertyOp9
 70
     1
102
RTVSPropertyOp10
 70
     1
102
RTVSPropertyOp11
 70
     1
102
RTVSPropertyOp12
 70
     1
102
RTVSPropertyOp13
 70
     1
102
RTVSPropertyOp14
 70
     1
102
RTVSPropertyOp15
 70
     1
102
RTVSPropertyOp16
 70
     1
102
RTVSPropertyOp17
 70
     1
102
RTVSPropertyOp18
 70
     1
102
RTVSPropertyOp19
 70
     1
102
RTVSPropertyOp20
 70
     1
102
RTVSPropertyOp21
 70
     1
102
RTVSPropertyOp22
 70
     1
102
RTVSPropertyOp23
 70
     1
102
RTVSPropertyOp24
 70
     1
102
RTVSPropertyOp25
 70
     1
102
RTVSPropertyOp26
 70
     1
102
RTVSPropertyOp27
 70
     1
102
RTVSPropertyOp28
 70
     1
102
RTVSPropertyOp29
 70
     1
102
RTVSPropertyOp30
 70
     1
102
RTVSPropertyOp31
 70
     1
102
RTVSPropertyOp32
 70
     1
  0
XRECORD
  5
28C
102
{ACAD_REACTORS
330
28B
102
}
330
28B
100
AcDbXrecord
280
     1
102
RTVSPropertyOp0
 70
     1
102
RTVSPropertyOp1
 70
     1
102
RTVSPropertyOp2
 70
     1
102
RTVSPropertyOp3
 70
     1
102
RTVSPropertyOp4
 70
     1
102
RTVSPropertyOp5
 70
     1
102
RTVSPropertyOp6
 70
     1
102
RTVSPropertyOp7
 70
     1
102
RTVSPropertyOp8
 70
     1
102
RTVSPropertyOp9
 70
     1
102
RTVSPropertyOp10
 70
     1
102
RTVSPropertyOp11
 70
     1
102
RTVSPropertyOp12
 70
     1
102
RTVSPropertyOp13
 70
     1
102
RTVSPropertyOp14
 70
     1
102
RTVSPropertyOp15
 70
     1
102
RTVSPropertyOp16
 70
     1
102
RTVSPropertyOp17
 70
     1
102
RTVSPropertyOp18
 70
     1
102
RTVSPropertyOp19
 70
     1
102
RTVSPropertyOp20
 70
     1
102
RTVSPropertyOp21
 70
     1
102
RTVSPropertyOp22
 70
     1
102
RTVSPropertyOp23
 70
     1
102
RTVSPropertyOp24
 70
     1
102
RTVSPropertyOp25
 70
     1
102
RTVSPropertyOp26
 70
     1
102
RTVSPropertyOp27
 70
     1
102
RTVSPropertyOp28
 70
     1
102
RTVSPropertyOp29
 70
     1
102
RTVSPropertyOp30
 70
     1
102
RTVSPropertyOp31
 70
     1
102
RTVSPropertyOp32
 70
     1
  0
ENDSEC
  0
EOF
